空之境界 第二章 杀人考察(前)[简繁英字幕].The.Garden.of.Sinners.A.Study.in.Murder-Part1.2007.BluRay.1080p.LPCM5.1.x265.10bit-CTRLHD 4.43GB

版主小s 1月前 156



◎译  名 空之境界 第二章 杀人考察(前) / 空之境界电影版2:杀人考察(前) / Gekij? ban Kara no ky?kai: Dai ni sh? - Satsujin k?satsu (zen)
◎片  名 劇場版 空の境界 第二章 殺人考察(前)
◎年  代 2007
◎产  地 日本
◎类  别 动画
◎语  言 日语
◎上映日期 2007-12-29
◎IMDb链接 https://www.imdb.com/title/tt1155651/
◎豆瓣评分 8.7/10 (21585人评价)
◎豆瓣链接 https://movie.douban.com/subject/2354900/
◎片  长 60分钟
◎编  剧 奈须蘑菇 Kinoko Nasu (id:1312878)
◎演  员 坂本真绫 Maaya Sakamoto (id:1146783)
       铃村健一 Kenichi Suzumura (id:1050963)
       藤村步 Ayumi Fujimura (id:1052148)
       东地宏树 Hiroki Touchi (id:1177363)
       中田让治 J?ji Nakata (id:1048500)
       保村真 Makoto Yasumura (id:1177037)
       保志总一朗 Soichiro Hoshi (id:1019468)
       高桥研二 Takahashi Kenji (id:1419515)
       梶浦由记 Yuki Kajiura (id:1025597)

◎简  介
  1995年9月,16岁的两仪式与黑桐干也相遇了。                                    
                                男孩子气的两仪式穿着和服来到学校,特殊的她与任何人都没有交集,除了黑桐干也。二人产生了某种关联,并开始了安稳的校园生活。                                    
                                同时,街上出现了连续猎奇杀人事件。由于警察朋友的关系,黑桐了解了一些内幕,他感到这个事件与式的双重人格有某种关系。                                    
                                两仪式与两仪织,猎奇杀人事件的真相到底是什么?两仪家的秘密在黑桐眼前逐渐展开。                                    
                                日本同人小说最高境界《空之境界》全七章动画化,本作为第二章电影版。

  1. ##### MediaInfo ######
  2. General
  3. Unique ID                                : 48776753334389355957822703493270405479 (0x24B20F9CA0301F622CA01756ED8F0167)
  4. Complete name                            : The.Garden.of.Sinners.A.Study.in.Murder-Part1.2007.BluRay.1080p.LPCM5.1.x265.10bit-CTRLHD.mkv
  5. Format                                   : Matroska
  6. Format version                           : Version 4
  7. File size                                : 4.43 GiB
  8. Duration                                 : 1 h 0 min
  9. Overall bit rate                         : 10.6 Mb/s
  10. Encoded date                             : UTC 2022-05-26 00:20:40
  11. Writing application                      : mkvmerge v66.0.0 ('Josie') 64-bit
  12. Writing library                          : libebml v1.4.2 + libmatroska v1.6.4
  13. Video
  14. ID                                       : 1
  15. Format                                   : HEVC
  16. Format/Info                              : High Efficiency Video Coding
  17. Format profile                           : Main 10@L5@Main
  18. Codec ID                                 : V_MPEGH/ISO/HEVC
  19. Duration                                 : 1 h 0 min
  20. Bit rate                                 : 3 534 kb/s
  21. Width                                    : 1 920 pixels
  22. Height                                   : 1 080 pixels
  23. Display aspect ratio                     : 16:9
  24. Frame rate mode                          : Constant
  25. Frame rate                               : 23.976 (24000/1001/53354) FPS
  26. Color space                              : YUV
  27. Chroma subsampling                       : 4:2:0
  28. Bit depth                                : 10 bits
  29. Bits/(Pixel*Frame)                       : 0.071
  30. Stream size                              : 1.48 GiB (33%)
  31. Writing library                          : x265 3.0+1-ed72af837053:[Windows][MSVC 1916][64 bit] 10bit
  32. Encoding settings                        : cpuid=533541111039 / frame-threads=3 / numa-pools=8 / wpp / no-pmode / pme / no-psnr / no-ssim / log-level=2 / input-csp=1 / input-res=1920x1080 / interlace=0 / total-frames=86353 / level-idc=0 / high-tier=1 / uhd-bd=0 / ref=6 / no-allow-non-conformance / repeat-headers / annexb / no-aud / no-hrd / info / hash=0 / no-temporal-layers / no-open-gop / min-keyint=1 / keyint=576 / gop-lookahead=0 / bframes=9 / b-adapt=2 / b-pyramid / bframe-bias=0 / rc-lookahead=70 / lookahead-slices=6 / NTMzNTQ=uuDQuD2mJt9fsCf / scenecut=40 / radl=0 / no-splice / no-intra-refresh / ctu=32 / min-cu-size=16 / rect / amp / max-tu-size=8 / tu-inter-depth=2 / tu-intra-depth=2 / limit-tu=3 / rdoq-level=1 / dynamic-rd=0.00 / no-ssim-rd / signhide / no-tskip / nr-intra=0 / nr-inter=0 / no-constrained-intra / no-strong-intra-smoothing / max-merge=3 / limit-refs=3 / limit-modes / me=3 / subme=7 / merange=48 / temporal-mvp / weightp / weightb / no-analyze-src-pics / deblock=-1:-1 / no-sao / no-sao-non-deblock / rd=3 / early-skip / no-rskip / no-fast-intra / no-tskip-fast / no-cu-lossless / no-b-intra / no-splitrd-skip / rdpenalty=2 / psy-rd=1.00 / psy-rdoq=0.00 / no-rd-refine / no-lossless / cbqpoffs=0 / crqpoffs=0 / rc=crf / crf=15.0 / qcomp=0.75 / qpstep=4 / stats-write=0 / stats-read=0 / ipratio=1.40 / pbratio=1.30 / aq-mode=3 / aq-strength=0.90 / cutree / zone-count=0 / no-strict-cbr / qg-size=32 / no-rc-grain / qpmax=69 / qpmin=0 / no-const-vbv / sar=0 / overscan=0 / videoformat=5 / range=0 / colorprim=2 / transfer=2 / colormatrix=2 / chromaloc=0 / display-window=0 / max-cll=0,0 / min-luma=0 / max-luma=1023 / log2-max-poc-lsb=8 / vui-timing-info / vui-hrd-info / slices=1 / no-opt-qp-pps / no-opt-ref-list-length-pps / no-multi-pass-opt-rps / scenecut-bias=0.05 / no-opt-cu-delta-qp / aq-motion / no-hdr / no-hdr-opt / no-dhdr10-opt / no-idr-recovery-sei / analysis-reuse-level=5 / scale-factor=0 / refine-intra=0 / refine-inter=0 / refine-mv=0 / refine-ctu-distortion=0 / no-limit-sao / ctu-info=0 / no-lowpass-dct / refine-analysis-type=0 / copy-pic=1 / max-ausize-factor=1.0 / no-dynamic-refine / no-single-sei / no-hevc-aq / qp-adaptation-range=1.00
  33. Default                                  : Yes
  34. Forced                                   : No
  35. Audio
  36. ID                                       : 2
  37. Format                                   : PCM
  38. Format settings                          : Little / Signed
  39. Codec ID                                 : A_PCM/INT/LIT
  40. Duration                                 : 1 h 0 min
  41. Bit rate mode                            : Constant
  42. Bit rate                                 : 6 912 kb/s
  43. Channel(s)                               : 6 channels
  44. Sampling rate                            : 48.0 kHz
  45. Frame rate                               : 200.000 FPS (240 SPF)
  46. Bit depth                                : 24 bits
  47. Stream size                              : 2.90 GiB (65%)
  48. Title                                    : Japanese
  49. Language                                 : Japanese
  50. Default                                  : Yes
  51. Forced                                   : No
  52. Text #1
  53. ID                                       : 3
  54. Format                                   : PGS
  55. Muxing mode                              : zlib
  56. Codec ID                                 : S_HDMV/PGS
  57. Codec ID/Info                            : Picture based subtitle format used on BDs/HD-DVDs
  58. Duration                                 : 59 min 41 s
  59. Bit rate                                 : 45.4 kb/s
  60. Count of elements                        : 1858
  61. Stream size                              : 19.4 MiB (0%)
  62. Title                                    : Chs&Jpn
  63. Language                                 : Chinese
  64. Default                                  : Yes
  65. Forced                                   : No
  66. Text #2
  67. ID                                       : 4
  68. Format                                   : PGS
  69. Muxing mode                              : zlib
  70. Codec ID                                 : S_HDMV/PGS
  71. Codec ID/Info                            : Picture based subtitle format used on BDs/HD-DVDs
  72. Duration                                 : 59 min 41 s
  73. Bit rate                                 : 46.7 kb/s
  74. Count of elements                        : 1858
  75. Stream size                              : 19.9 MiB (0%)
  76. Title                                    : Cht&Jpn
  77. Language                                 : Chinese
  78. Default                                  : Yes
  79. Forced                                   : No
  80. Text #3
  81. ID                                       : 5
  82. Format                                   : PGS
  83. Muxing mode                              : zlib
  84. Codec ID                                 : S_HDMV/PGS
  85. Codec ID/Info                            : Picture based subtitle format used on BDs/HD-DVDs
  86. Duration                                 : 59 min 41 s
  87. Bit rate                                 : 37.5 kb/s
  88. Count of elements                        : 1858
  89. Stream size                              : 16.0 MiB (0%)
  90. Title                                    : Chs
  91. Language                                 : Chinese
  92. Default                                  : Yes
  93. Forced                                   : No
  94. Text #4
  95. ID                                       : 6
  96. Format                                   : PGS
  97. Muxing mode                              : zlib
  98. Codec ID                                 : S_HDMV/PGS
  99. Codec ID/Info                            : Picture based subtitle format used on BDs/HD-DVDs
  100. Duration                                 : 59 min 41 s
  101. Bit rate                                 : 38.8 kb/s
  102. Count of elements                        : 1858
  103. Stream size                              : 16.5 MiB (0%)
  104. Title                                    : Cht
  105. Language                                 : Chinese
  106. Default                                  : Yes
  107. Forced                                   : No
  108. Text #5
  109. ID                                       : 7
  110. Format                                   : PGS
  111. Muxing mode                              : zlib
  112. Codec ID                                 : S_HDMV/PGS
  113. Codec ID/Info                            : Picture based subtitle format used on BDs/HD-DVDs
  114. Duration                                 : 58 min 1 s
  115. Bit rate                                 : 24.8 kb/s
  116. Count of elements                        : 1058
  117. Stream size                              : 10.3 MiB (0%)
  118. Title                                    : Jpn
  119. Language                                 : Japanese
  120. Default                                  : Yes
  121. Forced                                   : No
  122. Text #6
  123. ID                                       : 8
  124. Format                                   : PGS
  125. Muxing mode                              : zlib
  126. Codec ID                                 : S_HDMV/PGS
  127. Codec ID/Info                            : Picture based subtitle format used on BDs/HD-DVDs
  128. Duration                                 : 58 min 10 s
  129. Bit rate                                 : 26.0 kb/s
  130. Count of elements                        : 979
  131. Stream size                              : 10.8 MiB (0%)
  132. Title                                    : Eng
  133. Language                                 : English
  134. Default                                  : Yes
  135. Forced                                   : No
  136. Menu
  137. 00:00:00.000                             : :Chapter 1
  138. 00:02:02.705                             : :Chapter 2
  139. 00:03:56.778                             : :Chapter 3
  140. 00:06:31.808                             : :Chapter 4
  141. 00:15:26.091                             : :Chapter 5
  142. 00:26:58.241                             : :Chapter 6
  143. 00:37:06.265                             : :Chapter 7
  144. 00:44:41.428                             : :Chapter 8
  145. 00:51:07.189                             : :Chapter 9
  146. 00:53:30.874                             : :Chapter 10
  147. 00:58:09.486                             : :Chapter 11
  148. 00:58:54.531                             : :Chapter 12
  149. 00:59:59.596                             : :Chapter 13
复制代码




TAGS 动画

磁力链:
  • magnet:?xt=urn:btih:7AEFA4B5BB9A4951C4DF8A6800AE22C0C9162594
上传的附件:
BT9527电影天堂 1、BT9527电影天堂提供的BT文件均来源于互联网抓取,只供网友学习交流、技术提升使用。
2、我们遵守BitTorrent点对点协议原则,任何版权问题请联系原资源发布商,我们不处理任何版权纠纷,谢谢!如有争议请联系邮箱:BT9527#hotmail.com(#换成@)
3、如果您发现某页面或地址有错误,请联系站长邮箱BT9527#hotmail.com(#换成@),我们会尽快处理。您的热心是对BT9527电影天堂最大的支持。
4、本站建议去正规影院观看电影以支持电影行业发展。
最新回复 (0)

你可以在 登录 or 注册 后,对此帖发表评论!

返回
发新帖