C/侦探[国粤多音轨/简体字幕].The.Detective.2007.1080p.BluRay.DTS.2Audio.x265-10bit-ENTHD 7.80GB

版主小s 1月前 190

◎译 名 C+侦探 / C加侦探 / The Detective

◎片 名 C+偵探

◎年 代 2007

◎产 地 中国香港

◎类 别 剧情 / 悬疑

◎语 言 粤语

◎上映日期 2007-09-25(中国香港)

◎IMDb链接 https://www.imdb.com/title/tt1107807/

◎豆瓣评分 6.7/10 (30822人评价)

◎豆瓣链接 https://movie.douban.com/subject/2263112/

◎片 长 109 分钟

◎导 演 彭顺 Oxide Pang (id:1280774)

◎编 剧 彭顺 Oxide Pang (id:1280774)

彭柏成 Thomas Pang (id:1327610)

◎演 员 郭富城 Aaron Kwok (id:1041390)

廖启智 Kai Chi Liu (id:1274268)

黄德斌 Tak-bun Wong (id:1274442)

刘兆铭 Lau Siu Ming (id:1313719)

黎耀祥 Wayne Lai (id:1274440)

成奎安 Fui-On Shing (id:1141665)

商天娥 Tin-Ngoh Seung (id:1145127)

谷祖琳 Jolane Koo (id:1045825)

蔡雪敏 Suet Siu (id:1403724)

彭顺 Oxide Pang (id:1280774)

彭发 Danny Pang (id:1293885)

林炳坤 Bingkun Lin (id:1350348)

林小明 (id:1470713)

Decha Srimantra Decha Srimantra (id:1298207)

彭正熙 Curran Pang (id:1305790)

阿努松·品约坡特贾尼 Anuson Pinyopotjanee (id:1370030)

阿努索恩·品约波贾尼 Anusorn Pinyopojanee (id:1330638)

苏拉萨克·瓦拉希查荣 Surasak Warahitcharoen (id:1330640)

苏查达·索玛萨瓦柴 Suchada Somasavachai (id:1330641)

Vachira Wongsarod Vachira Wongsarod (id:1330644)

◎简 介

住在曼谷唐人街,父母早年失踪的阿探(郭富城 饰),自幼渴望和好友风泽(廖启智 饰)一起投身警界,却因高度近视未能如愿,不甘心之下,他当起了私家侦探,却只能接一些鸡鸣狗盗的小案子,赚钱不多、口碑奇差,还时常入不敷出,要靠风泽接济。一天,阿探的朋友肥龙(成奎安 饰)委托他调查一个女人,声称自己正在被她追杀。好奇之下,阿探根据照片查出这个女子叫莫慧心,却在寻找相关知情人士时接连出现怪异事件:跟莫慧心有关的人相继死亡,而阿探总是第一个发现者,简直成了死神的化身。为此风泽百般奉劝阿探放弃追查,甚至不惜以两人多年友谊要挟,阿探却执意坚持。随着调查的进展,惊人的真相开始渐渐浮出水面……

◎获奖情况 (共8项)

第44届台北金马影展 (2007)

金马奖 最佳男主角(提名)

└──郭富城 (id:1041390)

金马奖 最佳美术设计

└──阿努松·品约坡特贾尼 (id:1370030)

第27届香港电影金像奖 (2008)

最佳男主角(提名)

└──郭富城 (id:1041390)

最佳剪接(提名)

最佳美术指导(提名)

└──阿努索恩·品约波贾尼 (id:1330638)

最佳服装造型设计(提名)

└──苏拉萨克·瓦拉希查荣 (id:1330640)

最佳音响效果(提名)

└──Vachira Wongsarod (id:1330644)

最佳视觉效果(提名)

└──苏查达·索玛萨瓦柴 (id:1330641)

  1. ##### MediaInfo ######

  2. General

  3. Unique ID : 195171784877923847918863666354796744093 (0x92D4B7EE4744CACDC7D0398B6115CD9D)

  4. Complete name : The.Detective.2007.1080p.BluRay.DTS.2Audio.x265-10bit-ENTHD.mkv

  5. Format : Matroska

  6. Format version : Version 4

  7. File size : 7.80 GiB

  8. Duration : 1 h 49 min

  9. Overall bit rate : 10.2 Mb/s

  10. Movie name : The Detective 2007 1080p BluRay DTS 2Audio x265-10bit-HDS

  11. Encoded date : UTC 2022-05-25 05:26:49

  12. Writing application : mkvmerge v67.0.0 ('Under Stars') 64-bit

  13. Writing library : libebml v1.4.2 + libmatroska v1.6.4

  14. Video

  15. ID : 1

  16. Format : HEVC

  17. Format/Info : High Efficiency Video Coding

  18. Format profile : Main 10@L5.1@High

  19. Codec ID : V_MPEGH/ISO/HEVC

  20. Duration : 1 h 49 min

  21. Bit rate : 8 032 kb/s

  22. Width : 1 920 pixels

  23. Height : 812 pixels

  24. Display aspect ratio : 2.35:1

  25. Frame rate mode : Constant

  26. Frame rate : 24.000 FPS

  27. Color space : YUV

  28. Chroma subsampling : 4:2:0

  29. Bit depth : 10 bits

  30. Bits/(Pixel*Frame) : 0.215

  31. Stream size : 6.15 GiB (79%)

  32. Title : meyu@HDSky

  33. Writing library : x265 - H.265/HEVC codec

  34. Default : Yes

  35. Forced : No

  36. Audio #1

  37. ID : 2

  38. Format : DTS

  39. Format/Info : Digital Theater Systems

  40. Codec ID : A_DTS

  41. Duration : 1 h 49 min

  42. Bit rate mode : Constant

  43. Bit rate : 1 509 kb/s

  44. Channel(s) : 6 channels

  45. Channel layout : C L R Ls Rs LFE

  46. Sampling rate : 48.0 kHz

  47. Frame rate : 93.750 FPS (512 SPF)

  48. Bit depth : 24 bits

  49. Compression mode : Lossy

  50. Stream size : 1.15 GiB (15%)

  51. Title : Cantonese

  52. Language : Chinese

  53. Default : Yes

  54. Forced : No

  55. Audio #2

  56. ID : 3

  57. Format : AC-3

  58. Format/Info : Audio Coding 3

  59. Commercial name : Dolby Digital

  60. Codec ID : A_AC3

  61. Duration : 1 h 49 min

  62. Bit rate mode : Constant

  63. Bit rate : 640 kb/s

  64. Channel(s) : 6 channels

  65. Channel layout : L R C LFE Ls Rs

  66. Sampling rate : 48.0 kHz

  67. Frame rate : 31.250 FPS (1536 SPF)

  68. Compression mode : Lossy

  69. Stream size : 501 MiB (6%)

  70. Title : Mandarin

  71. Language : Chinese

  72. Service kind : Complete Main

  73. Default : Yes

  74. Forced : No

  75. Text #1

  76. ID : 4

  77. Format : PGS

  78. Muxing mode : zlib

  79. Codec ID : S_HDMV/PGS

  80. Codec ID/Info : Picture based subtitle format used on BDs/HD-DVDs

  81. Duration : 1 h 42 min

  82. Bit rate : 19.7 kb/s

  83. Count of elements : 1444

  84. Stream size : 14.4 MiB (0%)

  85. Title : CHS

  86. Language : Chinese

  87. Default : Yes

  88. Forced : No

  89. Text #2

  90. ID : 5

  91. Format : PGS

  92. Muxing mode : zlib

  93. Codec ID : S_HDMV/PGS

  94. Codec ID/Info : Picture based subtitle format used on BDs/HD-DVDs

  95. Duration : 1 h 42 min

  96. Bit rate : 20.9 kb/s

  97. Count of elements : 1444

  98. Stream size : 15.3 MiB (0%)

  99. Title : CHS

  100. Language : Chinese

  101. Default : Yes

  102. Forced : No

  103. Menu

  104. 00:00:00.000 : en:第 01 章

  105. 00:09:52.167 : en:第 02 章

  106. 00:19:49.708 : en:第 03 章

  107. 00:26:17.250 : en:第 04 章

  108. 00:36:07.042 : en:第 05 章

  109. 00:45:58.458 : en:第 06 章

  110. 00:52:20.542 : en:第 07 章

  111. 01:00:17.833 : en:第 08 章

  112. 01:08:44.000 : en:第 09 章

  113. 01:18:23.000 : en:第 10 章

  114. 01:24:27.292 : en:第 11 章

  115. 01:38:28.000 : en:第 12 章


复制代码


TAGS 剧情 悬疑 /

磁力链:
  • magnet:?xt=urn:btih:12D5782F0FC44FA968B66085B8C25D1D8088645B
上传的附件:
BT9527电影天堂 1、BT9527电影天堂提供的BT文件均来源于互联网抓取,只供网友学习交流、技术提升使用。
2、我们遵守BitTorrent点对点协议原则,任何版权问题请联系原资源发布商,我们不处理任何版权纠纷,谢谢!如有争议请联系邮箱:BT9527#hotmail.com(#换成@)
3、如果您发现某页面或地址有错误,请联系站长邮箱BT9527#hotmail.com(#换成@),我们会尽快处理。您的热心是对BT9527电影天堂最大的支持。
4、本站建议去正规影院观看电影以支持电影行业发展。
最新回复 (0)

你可以在 登录 or 注册 后,对此帖发表评论!

返回
发新帖