黑暗之中[简繁英字幕].In.Darkness.2018.BluRay.1080p.DTS-HD.MA5.1.x265.10bit-ALT 5.71GB

版主小s 1月前 145



◎译  名 黑暗之中 / 黑暗深渊
◎片  名 In Darkness
◎年  代 2018
◎产  地 英国 / 美国
◎类  别 惊悚
◎语  言 英语
◎上映日期 2018-05-25(美国)
◎IMDb链接 https://www.imdb.com/title/tt5164184/
◎豆瓣评分 5.8/10 (2195人评价)
◎豆瓣链接 https://movie.douban.com/subject/26824001/
◎片  长 100分钟
◎导  演 安东尼·拜恩 Anthony Byrne (id:1051107)
◎编  剧 安东尼·拜恩 Anthony Byrne (id:1051107)
       娜塔莉·多默尔 Natalie Dormer (id:1004607)
◎演  员 娜塔莉·多默尔 Natalie Dormer (id:1004607)
       艾米丽·拉塔科斯基 Emily Ratajkowski (id:1327702)
       艾德·斯克林 Ed Skrein (id:1329130)
       乔莉·理查德森 Joely Richardson (id:1013795)
       詹姆斯·科兹莫 James Cosmo (id:1019110)
       尼尔·马斯克尔 Neil Maskell (id:1339918)
       安珀·安德森 Amber Anderson (id:1394211)
       扬·贝弗特 Jan Bijvoet (id:1061454)
       贝恩·科拉科 Bern Colla?o (id:1394212)
       莱克茜·本博-哈特 Lexie Benbow-Hart (id:1356656)
       金·阿迪斯 Kim Adis (id:1394213)
       丹尼尔·厄根 Daniel Eghan (id:1367202)
       Chelsea O'Connor Chelsea O'Connor (id:1394215)
       雷纳斯·拉特科夫斯基 Renars Latkovskis (id:1394214)
       奥莱加·费多罗 Olegar Fedoro (id:1086959)
       迈克尔·博特 Michael Bott (id:1364714)
       尼尔·伯恩 Niall Byrne (id:1276444)

◎简  介
  Vertical Entertainment取得娜塔莉·多默尔、艾德·斯克林主演影片[黑暗之中](In Darkness,暂译)的北美发行权,该片由安东尼·拜恩执导。该片讲述盲人女孩索菲亚(多默尔饰)偶然听到楼上有打斗之声。实际上楼上的维罗尼卡已遭人陷害。而索菲亚也无故卷入一场黑暗事件中。该片预计今年5月北美上映。

  1. ##### MediaInfo ######
  2. General
  3. Unique ID                                : 154945985228870331211859737174104857048 (0x749182E2B02956AD538D7AFB7503D9D8)
  4. Complete name                            : In.Darkness.2018.BluRay.1080p.DTS-HD.MA5.1.x265.10bit-ALT.mkv
  5. Format                                   : Matroska
  6. Format version                           : Version 4
  7. File size                                : 5.71 GiB
  8. Duration                                 : 1 h 46 min
  9. Overall bit rate mode                    : Variable
  10. Overall bit rate                         : 7 666 kb/s
  11. Encoded date                             : UTC 2022-05-25 11:13:19
  12. Writing application                      : mkvmerge v49.0.0 ('Sick Of Losing Soulmates') 64-bit
  13. Writing library                          : libebml v1.4.0 + libmatroska v1.6.1
  14. Video
  15. ID                                       : 1
  16. Format                                   : HEVC
  17. Format/Info                              : High Efficiency Video Coding
  18. Format profile                           : Main 10@L5.1@High
  19. Codec ID                                 : V_MPEGH/ISO/HEVC
  20. Duration                                 : 1 h 46 min
  21. Bit rate                                 : 4 341 kb/s
  22. Width                                    : 1 920 pixels
  23. Height                                   : 800 pixels
  24. Display aspect ratio                     : 2.40:1
  25. Frame rate mode                          : Constant
  26. Frame rate                               : 23.976 (24000/1001/53354) FPS
  27. Color space                              : YUV
  28. Chroma subsampling                       : 4:2:0
  29. Bit depth                                : 10 bits
  30. Bits/(Pixel*Frame)                       : 0.118
  31. Stream size                              : 3.23 GiB (57%)
  32. Title                                    : HEVC, x265Main10@L5.1@High, 24/1.001 fps @ 3455 kbps
  33. Writing library                          : x265 3.5+36-1f2c8da77:[Windows][GCC 11.2.0][64 bit] 10bit
  34. Encoding settings                        : cpuid=533541111039 / frame-threads=4 / numa-pools=16 / wpp / no-pmode / no-pme / no-psnr / no-ssim / log-level=2 / input-csp=1 / input-res=1920x800 / interlace=0 / total-frames=153264 / level-idc=51 / high-tier=1 / uhd-bd=0 / ref=5 / no-allow-non-conformance / no-repeat-headers / annexb / no-aud / no-eob / no-eos / no-hrd / info / hash=0 / no-temporal-layers / open-gop / min-keyint=24 / keyint=240 / gop-lookahead=0 / bframes=6 / b-adapt=2 / b-pyramid / bframe-bias=0 / rc-lookahead=40 / lookahead-slices=0 / NTMzNTQ=uuDQuD2mJt9fsCf / scenecut=40 / no-hist-scenecut / radl=0 / no-splice / no-intra-refresh / ctu=32 / min-cu-size=8 / no-rect / no-amp / max-tu-size=32 / tu-inter-depth=3 / tu-intra-depth=3 / limit-tu=4 / rdoq-level=2 / dynamic-rd=0.00 / no-ssim-rd / signhide / no-tskip / nr-intra=0 / nr-inter=0 / no-constrained-intra / no-strong-intra-smoothing / max-merge=4 / limit-refs=1 / limit-modes / me=3 / subme=4 / merange=25 / temporal-mvp / no-frame-dup / no-hme / weightp / weightb / no-analyze-src-pics / deblock=-3:-3 / no-sao / no-sao-non-deblock / rd=6 / selective-sao=0 / no-early-skip / rskip / no-fast-intra / no-tskip-fast / no-cu-lossless / b-intra / no-splitrd-skip / rdpenalty=0 / psy-rd=2.00 / psy-rdoq=1.00 / no-rd-refine / no-lossless / cbqpoffs=-2 / crqpoffs=-2 / rc=crf / crf=17.0 / qcomp=0.65 / qpstep=4 / stats-write=0 / stats-read=0 / vbv-maxrate=80000 / vbv-bufsize=80000 / vbv-init=0.9 / min-vbv-fullness=50.0 / max-vbv-fullness=80.0 / crf-max=0.0 / crf-min=0.0 / ipratio=1.40 / pbratio=1.30 / aq-mode=2 / aq-strength=0.85 / cutree / zone-count=0 / no-strict-cbr / qg-size=32 / no-rc-grain / qpmax=69 / qpmin=0 / no-const-vbv / sar=1 / overscan=0 / videoformat=5 / range=0 / colorprim=1 / transfer=1 / colormatrix=1 / chromaloc=0 / display-window=0 / cll=0,0 / min-luma=0 / max-luma=1023 / log2-max-poc-lsb=8 / vui-timing-info / vui-hrd-info / slices=1 / no-opt-qp-pps / no-opt-ref-list-length-pps / no-multi-pass-opt-rps / scenecut-bias=0.05 / hist-threshold=0.03 / no-opt-cu-delta-qp / no-aq-motion / no-hdr10 / no-hdr10-opt / no-dhdr10-opt / no-idr-recovery-sei / analysis-reuse-level=0 / analysis-save-reuse-level=0 / analysis-load-reuse-level=0 / scale-factor=0 / refine-intra=0 / refine-inter=0 / refine-mv=1 / refine-ctu-distortion=0 / no-limit-sao / ctu-info=0 / no-lowpass-dct / refine-analysis-type=0 / copy-pic=1 / max-ausize-factor=1.0 / no-dynamic-refine / no-single-sei / no-hevc-aq / no-svt / no-field / qp-adaptation-range=1.00 / scenecut-aware-qp=0conformance-window-offsets / right=0 / bottom=0 / NTMzNTQ= / decoder-max-rate=0 / no-vbv-live-multi-pass
  35. Language                                 : English
  36. Default                                  : Yes
  37. Forced                                   : No
  38. Color range                              : Limited
  39. Color primaries                          : BT.709
  40. Transfer characteristics                 : BT.709
  41. Matrix coefficients                      : BT.709
  42. Audio
  43. ID                                       : 2
  44. Format                                   : DTS XLL
  45. Format/Info                              : Digital Theater Systems
  46. Commercial name                          : DTS-HD Master Audio
  47. Codec ID                                 : A_DTS
  48. Duration                                 : 1 h 46 min
  49. Bit rate mode                            : Variable
  50. Bit rate                                 : 3 214 kb/s
  51. Channel(s)                               : 6 channels
  52. Channel layout                           : C L R Ls Rs LFE
  53. Sampling rate                            : 48.0 kHz
  54. Frame rate                               : 93.750 FPS (512 SPF)
  55. Bit depth                                : 24 bits
  56. Compression mode                         : Lossless
  57. Stream size                              : 2.39 GiB (42%)
  58. Title                                    : English DTS-HD Master Audio 5.1 @ 3330 kbps
  59. Language                                 : English
  60. Default                                  : Yes
  61. Forced                                   : No
  62. Text #1
  63. ID                                       : 3
  64. Format                                   : PGS
  65. Codec ID                                 : S_HDMV/PGS
  66. Codec ID/Info                            : Picture based subtitle format used on BDs/HD-DVDs
  67. Duration                                 : 1 h 40 min
  68. Bit rate                                 : 35.4 kb/s
  69. Count of elements                        : 1820
  70. Stream size                              : 25.5 MiB (0%)
  71. Title                                    : Eng/SUP
  72. Language                                 : English
  73. Default                                  : No
  74. Forced                                   : No
  75. Text #2
  76. ID                                       : 4
  77. Format                                   : PGS
  78. Codec ID                                 : S_HDMV/PGS
  79. Codec ID/Info                            : Picture based subtitle format used on BDs/HD-DVDs
  80. Duration                                 : 1 h 35 min
  81. Bit rate                                 : 15.5 kb/s
  82. Count of elements                        : 1043
  83. Stream size                              : 10.6 MiB (0%)
  84. Title                                    : Chs/SUP  简体
  85. Language                                 : Chinese
  86. Default                                  : Yes
  87. Forced                                   : No
  88. Text #3
  89. ID                                       : 5
  90. Format                                   : PGS
  91. Codec ID                                 : S_HDMV/PGS
  92. Codec ID/Info                            : Picture based subtitle format used on BDs/HD-DVDs
  93. Duration                                 : 1 h 35 min
  94. Bit rate                                 : 16.4 kb/s
  95. Count of elements                        : 1043
  96. Stream size                              : 11.2 MiB (0%)
  97. Title                                    : Cht/SUP  繁体
  98. Language                                 : Chinese
  99. Default                                  : No
  100. Forced                                   : No
  101. Text #4
  102. ID                                       : 6
  103. Format                                   : PGS
  104. Codec ID                                 : S_HDMV/PGS
  105. Codec ID/Info                            : Picture based subtitle format used on BDs/HD-DVDs
  106. Duration                                 : 1 h 35 min
  107. Bit rate                                 : 25.3 kb/s
  108. Count of elements                        : 1044
  109. Stream size                              : 17.3 MiB (0%)
  110. Title                                    : Chs/SUP  简英双语
  111. Language                                 : Chinese
  112. Default                                  : No
  113. Forced                                   : No
  114. Text #5
  115. ID                                       : 7
  116. Format                                   : PGS
  117. Codec ID                                 : S_HDMV/PGS
  118. Codec ID/Info                            : Picture based subtitle format used on BDs/HD-DVDs
  119. Duration                                 : 1 h 35 min
  120. Bit rate                                 : 26.1 kb/s
  121. Count of elements                        : 1044
  122. Stream size                              : 17.9 MiB (0%)
  123. Title                                    : Cht/SUP  繁英双语
  124. Language                                 : Chinese
  125. Default                                  : No
  126. Forced                                   : No
  127. Menu
  128. 00:00:00.000                             : en:第 01 章
  129. 00:09:05.545                             : en:第 02 章
  130. 00:16:50.301                             : en:第 03 章
  131. 00:24:32.930                             : en:第 04 章
  132. 00:33:22.334                             : en:第 05 章
  133. 00:40:36.684                             : en:第 06 章
  134. 00:49:11.157                             : en:第 07 章
  135. 00:57:32.574                             : en:第 08 章
  136. 01:06:35.825                             : en:第 09 章
  137. 01:14:06.776                             : en:第 10 章
  138. 01:22:42.624                             : en:第 11 章
  139. 01:30:14.951                             : en:第 12 章
复制代码




TAGS 惊悚

磁力链:
  • magnet:?xt=urn:btih:F9D30D5742E7F8290616492344DEAA468F608003
上传的附件:
BT9527电影天堂 1、BT9527电影天堂提供的BT文件均来源于互联网抓取,只供网友学习交流、技术提升使用。
2、我们遵守BitTorrent点对点协议原则,任何版权问题请联系原资源发布商,我们不处理任何版权纠纷,谢谢!如有争议请联系邮箱:BT9527#hotmail.com(#换成@)
3、如果您发现某页面或地址有错误,请联系站长邮箱BT9527#hotmail.com(#换成@),我们会尽快处理。您的热心是对BT9527电影天堂最大的支持。
4、本站建议去正规影院观看电影以支持电影行业发展。
最新回复 (0)

你可以在 登录 or 注册 后,对此帖发表评论!

返回