终极快递[中文字幕].Coursier.2010.1080p.BluRay.DTS.x265-10bit-ENTHD 5.61GB

版主小s 1月前 161



◎译  名 终极快递 / 攞命快递密密送(港) / 快递我不慌 / 信使 / 速递
◎片  名 Coursier
◎年  代 2010
◎产  地 法国
◎类  别 喜剧
◎语  言 法语
◎上映日期 2011-07-02(中国大陆) / 2010-02-24(法国)
◎IMDb链接 https://www.imdb.com/title/tt1429429/
◎豆瓣评分 6.5/10 (8574人评价)
◎豆瓣链接 https://movie.douban.com/subject/3718493/
◎片  长 90分钟
◎导  演 埃尔韦·雷诺阿 Hervé Renoh (id:1317545)
◎编  剧 埃尔韦·雷诺阿 Hervé Renoh (id:1317545)
◎演  员 迈克尔·扬 Micha?l Youn (id:1036804)
       热拉尔丁·纳卡什 Géraldine Nakache (id:1017841)
       吉米·让-刘易斯 Jimmy Jean-Louis (id:1189264)
       狄迪尔·弗拉蒙 Didier Flamand (id:1025131)
       卡塔利娜·丹尼斯 Catalina Denis (id:1315047)
       娜塔莉亚·多切瓦 Natalia Dontcheva (id:1317067)
       贾尼·贾丹尼 Gianni Giardinelli (id:1051419)
       让-玛丽·拉穆尔 Jean-Marie Lamour (id:1313121)
       乔·普雷斯蒂亚 Jo Prestia (id:1018470)
       帕特里克·德阿萨姆曹 Patrick d'Assum?ao (id:1329010)
       弗雷德里克·周 Frédéric Chau (id:1339837)
        Yelena Meltsina (id:1270378)
        Alexis Wawerka (id:1253828)
       约翰·西希尔 John Sehil (id:1410740)
       皮埃尔-安·勒·博甘 Pierre-Ange Le Pogam (id:1023711)
       Stéphanie Guillon Stéphanie Guillon (id:1171102)
       Olivier Poujaud Olivier Poujaud (id:1053750)

◎简  介
  《终极快递》是法国电影大师吕克·贝松自《的士速递》系列后有意打造的又一个系列飙车电影。                                    
                                山姆(迈克尔·扬 Micha?l Youn 饰)是一个信使。他每日飞车穿过巴黎,常常无视交通的基本规则。他必须出席婚礼以试图挽救与女友纳迪娅(杰拉尔丁·纳卡什 Géraldine Nakache 饰)的关系,然而这天他没有选择地只能接受他的老板紧急差事,去送一个快件。为了完成任务他不得不扮演罪犯的帮凶,将价值连城的珠宝送至巴黎市中心的豪华酒店。当他一身快递装扮进入大厅时,前台经理有些嗤之以鼻,但在山姆报上名号后,经理态度则180度大转弯,令人忍俊不禁。山姆也没有想到自己能入住总统套房,而在房间里还有一位美女等着他.......

  1. ##### MediaInfo ######
  2. General
  3. Unique ID                                : 37162827073256375304574158945837550290 (0x1BF54CD67D4272FF1E860114B6628AD2)
  4. Complete name                            : Coursier.2010.1080p.BluRay.DTS.x265-10bit-ENTHD.mkv
  5. Format                                   : Matroska
  6. Format version                           : Version 4
  7. File size                                : 5.60 GiB
  8. Duration                                 : 1 h 38 min
  9. Overall bit rate                         : 8 146 kb/s
  10. Movie name                               : Coursier 2010 1080p BluRay DTS x265-10bit-HDS
  11. Encoded date                             : UTC 2022-05-26 02:33:02
  12. Writing application                      : mkvmerge v67.0.0 ('Under Stars') 64-bit
  13. Writing library                          : libebml v1.4.2 + libmatroska v1.6.4
  14. Video
  15. ID                                       : 1
  16. Format                                   : HEVC
  17. Format/Info                              : High Efficiency Video Coding
  18. Format profile                           : Main 10@L5.1@High
  19. Codec ID                                 : V_MPEGH/ISO/HEVC
  20. Duration                                 : 1 h 38 min
  21. Bit rate                                 : 6 619 kb/s
  22. Width                                    : 1 920 pixels
  23. Height                                   : 816 pixels
  24. Display aspect ratio                     : 2.35:1
  25. Frame rate mode                          : Constant
  26. Frame rate                               : 24.000 FPS
  27. Color space                              : YUV
  28. Chroma subsampling                       : 4:2:0
  29. Bit depth                                : 10 bits
  30. Bits/(Pixel*Frame)                       : 0.176
  31. Stream size                              : 4.55 GiB (81%)
  32. Title                                    : meyu@HDSky
  33. Writing library                          : x265 - H.265/HEVC codec
  34. Default                                  : Yes
  35. Forced                                   : No
  36. Audio
  37. ID                                       : 2
  38. Format                                   : DTS
  39. Format/Info                              : Digital Theater Systems
  40. Codec ID                                 : A_DTS
  41. Duration                                 : 1 h 38 min
  42. Bit rate mode                            : Constant
  43. Bit rate                                 : 1 509 kb/s
  44. Channel(s)                               : 6 channels
  45. Channel layout                           : C L R Ls Rs LFE
  46. Sampling rate                            : 48.0 kHz
  47. Frame rate                               : 93.750 FPS (512 SPF)
  48. Bit depth                                : 24 bits
  49. Compression mode                         : Lossy
  50. Stream size                              : 1.04 GiB (19%)
  51. Title                                    : French
  52. Language                                 : French
  53. Default                                  : Yes
  54. Forced                                   : No
  55. Text
  56. ID                                       : 3
  57. Format                                   : PGS
  58. Muxing mode                              : zlib
  59. Codec ID                                 : S_HDMV/PGS
  60. Codec ID/Info                            : Picture based subtitle format used on BDs/HD-DVDs
  61. Duration                                 : 1 h 32 min
  62. Bit rate                                 : 31.6 kb/s
  63. Count of elements                        : 3040
  64. Stream size                              : 20.8 MiB (0%)
  65. Title                                    : CHS
  66. Language                                 : Chinese
  67. Default                                  : Yes
  68. Forced                                   : No
  69. Menu
  70. 00:00:00.000                             : en:第 01 章
  71. 00:08:14.708                             : en:第 02 章
  72. 00:17:58.667                             : en:第 03 章
  73. 00:25:21.292                             : en:第 04 章
  74. 00:34:37.417                             : en:第 05 章
  75. 00:43:16.625                             : en:第 06 章
  76. 00:52:04.583                             : en:第 07 章
  77. 00:59:39.750                             : en:第 08 章
  78. 01:07:21.125                             : en:第 09 章
  79. 01:19:08.042                             : en:第 10 章
  80. 01:31:56.625                             : en:第 11 章
复制代码




TAGS 喜剧

磁力链:
  • magnet:?xt=urn:btih:795203DC997FB3EF94173EEA97E206DFDFC11E32
上传的附件:
BT9527电影天堂 1、BT9527电影天堂提供的BT文件均来源于互联网抓取,只供网友学习交流、技术提升使用。
2、我们遵守BitTorrent点对点协议原则,任何版权问题请联系原资源发布商,我们不处理任何版权纠纷,谢谢!如有争议请联系邮箱:BT9527#hotmail.com(#换成@)
3、如果您发现某页面或地址有错误,请联系站长邮箱BT9527#hotmail.com(#换成@),我们会尽快处理。您的热心是对BT9527电影天堂最大的支持。
4、本站建议去正规影院观看电影以支持电影行业发展。
最新回复 (0)

你可以在 登录 or 注册 后,对此帖发表评论!

返回
发新帖