换子疑云[简繁英字幕].Changeling.2008.BluRay.1080p.DTS-HD.MA5.1.x265.10bit-ALT 10.20GB

版主小s 1月前 133



◎译  名 换子疑云 / 陌生的孩子(台) / 换命谎言(港) / 调包婴儿 / 换婴记 / 换亲子迷雾
◎片  名 Changeling
◎年  代 2008
◎产  地 美国
◎类  别 剧情 / 悬疑 / 惊悚
◎语  言 英语 / 葡萄牙语
◎上映日期 2008-10-31(美国)
◎IMDb链接 https://www.imdb.com/title/tt0824747/
◎豆瓣评分 8.4/10 (152968人评价)
◎豆瓣链接 https://movie.douban.com/subject/2028666/
◎片  长 141分钟
◎导  演 克林特·伊斯特伍德 Clint Eastwood (id:1054436)
◎编  剧 J·迈克尔·斯特拉辛斯基 J. Michael Straczynski (id:1009530)
◎演  员 安吉丽娜·朱莉 Angelina Jolie (id:1054447)
       盖特林·格里菲斯 Gattlin Griffith (id:1315243)
       米歇尔·冈 Michelle Gunn (id:1315244)
       约翰·马尔科维奇 John Malkovich (id:1041013)
       科鲁姆·费奥瑞 Colm Feore (id:1022706)
       杰弗里·多诺万 Jeffrey Donovan (id:1044732)
       迈克尔·凯利 Michael Kelly (id:1104615)
       Morgan Eastwood Morgan Eastwood (id:1208249)
       约翰·哈林顿·布兰德 John Harrington Bland (id:1062496)
       戴尔·迪奇 Dale Dickey (id:1313800)
       瑞琪·琳德赫姆 Riki Lindhome (id:1031927)
       Jan Devereaux Jan Devereaux (id:1366482)
       Erica Grant Erica Grant (id:1366483)
       弗兰克·伍德 Frank Wood (id:1366484)
       Kelly Lynn Warren Kelly Lynn Warren (id:1366486)
       约翰·R·邓肯 John R. Duncan (id:1432768)
       艾迪·阿尔德森 Eddie Alderson (id:1040873)
       里德·伯尼 Reed Birney (id:1063931)
       斯考特·拉瓦  Scott Leva (id:1289875)
       杰森·巴特勒·哈纳 Jason Butler Harner (id:1027487)
       艾米·莱安 Amy Ryan (id:1144124)
       吉奥夫·皮尔森 Geoff Pierson (id:1135790)
       丹尼斯·欧哈拉 Denis O'Hare (id:1013900)
       彼得·格雷蒂 Peter Gerety (id:1097487)
       大卫·皮尔 David Pearl (id:1432775)
       罗伯特·洛伦兹 Robert Lorenz (id:1290324)
       Tim Moore Tim Moore (id:1292424)
       克林特·伊斯特伍德 Clint Eastwood (id:1054436)
       莱尼·涅霍斯 Lennie Niehaus (id:1018772)
       克林特·伊斯特伍德 Clint Eastwood (id:1054436)
       加里·罗奇 Gary Roach (id:1295733)
       乔尔·考克斯 Joel Cox (id:1281415)
       杰弗里·麦克拉特 Geoffrey Miclat (id:1184145)
       Ellen Chenoweth Ellen Chenoweth (id:1280600)
       詹姆斯·J·默拉卡米 James J. Murakami (id:1292724)
       加里·费迪斯 Gary Fettis (id:1283648)
       Deborah Hopper Deborah Hopper (id:1286913)
       Jay Wejebe Jay Wejebe (id:1300656)
       Janis Clark Janis Clark (id:1280850)
       卡罗尔·A·奥康奈尔 Carol A. O'Connell (id:1293382)
       塔尼亚·麦克科马斯 Tania McComas (id:1291482)
       托尼·G Toni G (id:1284361)
       科林·贾米森 Colin Jamison (id:1287572)
       Katie Carroll Katie Carroll (id:1280171)
       Donald Murphy Donald Murphy (id:1292748)
       迈克尔·欧文斯 Michael Owens (id:1293758)
       Jinnie Pak Jinnie Pak (id:1293822)
       Earl Paraszczynec Earl Paraszczynec (id:1293928)
       Sean Stanek Sean Stanek (id:1298245)
       丹尼斯·霍夫曼 Dennis Hoffman (id:1286766)
       Laurent Ben-Mimoun Laurent Ben-Mimoun (id:1301846)
       马克·弗伦德 Mark Freund (id:1284190)
       Debora Dunphy Debora Dunphy (id:1282830)
       Geoffrey Hancock Geoffrey Hancock (id:1302079)
       Lee Allan Lee Allan (id:1311803)
       Romain Bayle Romain Bayle (id:1310674)
       Abel Milanes Abel Milanes (id:1310582)
       罗恩·克拉布 Ron Crabb (id:1310401)

◎简  介
  1928年美国洛杉矶,在电话局接线台工作的克莉斯汀?柯林斯(Angelina Jolie 安吉莉娜?朱丽 饰)独自抚养儿子沃特(Gattlin Griffith 加特林?格里菲斯 饰),母子的生活简单而幸福。然而她们的生活很快被打乱,某天当克莉斯汀下班后,发现儿子不见踪影。                                       
                                    在公众的舆论压力下,腐败的洛杉矶警方于5个月后找回沃特,但克莉斯汀发现这并非自己的亲生儿子。她三番五次要求警方澄清事实,帮其寻找真正的沃特,却一次次受到阻挠和指责,甚至以妨碍警方公务的罪名被送入精神病院。一向以揭露警方暴行为己任的牧师古斯塔夫?布里格拉伯(John Malkovich 约翰?马尔科维奇 饰),为了这个可怜女人的不幸遭遇奔走呼告。                                       
                                    另一方面,探员莱斯特(Michael Kelly 饰)在侦办一件偷渡案时,无意中发现了一起重大的连环儿童杀人案。少年沃特的失踪案似乎渐露...

◎获奖情况 (共8项)
  第81届奥斯卡金像奖 (2009)
  最佳女主角(提名)
   └──安吉丽娜·朱莉 (id:1054447)
  最佳摄影(提名)
   └──汤姆·斯特恩 (id:1037117)
  最佳艺术指导(提名)

  第61届戛纳电影节 (2008)
  主竞赛单元 金棕榈奖(提名)
   └──克林特·伊斯特伍德 (id:1054436)

  第66届金球奖 (2009)
  电影类 剧情片最佳女主角(提名)
   └──安吉丽娜·朱莉 (id:1054447)
  电影类 最佳原创配乐(提名)
   └──克林特·伊斯特伍德 (id:1054436)

  第33届日本电影学院奖 (2010)
  最佳外语片(提名)

  第11届美国青少年选择奖 (2009)
  最佳剧情片女演员(提名)
   └──安吉丽娜·朱莉 (id:1054447)

  1. ##### MediaInfo ######
  2. General
  3. Unique ID                                : 219013723712699474480993380356592676445 (0xA4C48245804E505953D858647C4EAE5D)
  4. Complete name                            : Changeling.2008.BluRay.1080p.DTS-HD.MA5.1.x265.10bit-ALT.mkv
  5. Format                                   : Matroska
  6. Format version                           : Version 4
  7. File size                                : 10.2 GiB
  8. Duration                                 : 2 h 21 min
  9. Overall bit rate mode                    : Variable
  10. Overall bit rate                         : 10.3 Mb/s
  11. Encoded date                             : UTC 2022-05-25 09:34:46
  12. Writing application                      : mkvmerge v49.0.0 ('Sick Of Losing Soulmates') 64-bit
  13. Writing library                          : libebml v1.4.0 + libmatroska v1.6.1
  14. Video
  15. ID                                       : 1
  16. Format                                   : HEVC
  17. Format/Info                              : High Efficiency Video Coding
  18. Format profile                           : Main 10@L5.1@High
  19. Codec ID                                 : V_MPEGH/ISO/HEVC
  20. Duration                                 : 2 h 21 min
  21. Bit rate                                 : 6 744 kb/s
  22. Width                                    : 1 920 pixels
  23. Height                                   : 800 pixels
  24. Display aspect ratio                     : 2.40:1
  25. Frame rate mode                          : Constant
  26. Frame rate                               : 23.976 (24000/1001/53354) FPS
  27. Color space                              : YUV
  28. Chroma subsampling                       : 4:2:0
  29. Bit depth                                : 10 bits
  30. Bits/(Pixel*Frame)                       : 0.183
  31. Stream size                              : 6.68 GiB (66%)
  32. Title                                    : HEVC, x265Main10@L5.1@High, 24/1.001 fps @ 6743 kbps
  33. Writing library                          : x265 3.5+36-1f2c8da77:[Windows][GCC 11.2.0][64 bit] 10bit
  34. Encoding settings                        : cpuid=533541111039 / frame-threads=4 / numa-pools=20 / wpp / no-pmode / no-pme / no-psnr / no-ssim / log-level=2 / input-csp=1 / input-res=1920x800 / interlace=0 / total-frames=204144 / level-idc=51 / high-tier=1 / uhd-bd=0 / ref=5 / no-allow-non-conformance / no-repeat-headers / annexb / no-aud / no-eob / no-eos / no-hrd / info / hash=0 / no-temporal-layers / open-gop / min-keyint=24 / keyint=240 / gop-lookahead=0 / bframes=6 / b-adapt=2 / b-pyramid / bframe-bias=0 / rc-lookahead=40 / lookahead-slices=0 / NTMzNTQ=uuDQuD2mJt9fsCf / scenecut=40 / no-hist-scenecut / radl=0 / no-splice / no-intra-refresh / ctu=32 / min-cu-size=8 / no-rect / no-amp / max-tu-size=32 / tu-inter-depth=3 / tu-intra-depth=3 / limit-tu=4 / rdoq-level=2 / dynamic-rd=0.00 / no-ssim-rd / signhide / no-tskip / nr-intra=0 / nr-inter=0 / no-constrained-intra / no-strong-intra-smoothing / max-merge=4 / limit-refs=1 / limit-modes / me=3 / subme=4 / merange=25 / temporal-mvp / no-frame-dup / no-hme / weightp / weightb / no-analyze-src-pics / deblock=-3:-3 / no-sao / no-sao-non-deblock / rd=6 / selective-sao=0 / no-early-skip / rskip / no-fast-intra / no-tskip-fast / no-cu-lossless / b-intra / no-splitrd-skip / rdpenalty=0 / psy-rd=2.00 / psy-rdoq=1.00 / no-rd-refine / no-lossless / cbqpoffs=-2 / crqpoffs=-2 / rc=crf / crf=17.0 / qcomp=0.65 / qpstep=4 / stats-write=0 / stats-read=0 / vbv-maxrate=80000 / vbv-bufsize=80000 / vbv-init=0.9 / min-vbv-fullness=50.0 / max-vbv-fullness=80.0 / crf-max=0.0 / crf-min=0.0 / ipratio=1.40 / pbratio=1.30 / aq-mode=2 / aq-strength=0.85 / cutree / zone-count=0 / no-strict-cbr / qg-size=32 / no-rc-grain / qpmax=69 / qpmin=0 / no-const-vbv / sar=1 / overscan=0 / videoformat=5 / range=0 / colorprim=1 / transfer=1 / colormatrix=1 / chromaloc=0 / display-window=0 / cll=0,0 / min-luma=0 / max-luma=1023 / log2-max-poc-lsb=8 / vui-timing-info / vui-hrd-info / slices=1 / no-opt-qp-pps / no-opt-ref-list-length-pps / no-multi-pass-opt-rps / scenecut-bias=0.05 / hist-threshold=0.03 / no-opt-cu-delta-qp / no-aq-motion / no-hdr10 / no-hdr10-opt / no-dhdr10-opt / no-idr-recovery-sei / analysis-reuse-level=0 / analysis-save-reuse-level=0 / analysis-load-reuse-level=0 / scale-factor=0 / refine-intra=0 / refine-inter=0 / refine-mv=1 / refine-ctu-distortion=0 / no-limit-sao / ctu-info=0 / no-lowpass-dct / refine-analysis-type=0 / copy-pic=1 / max-ausize-factor=1.0 / no-dynamic-refine / no-single-sei / no-hevc-aq / no-svt / no-field / qp-adaptation-range=1.00 / scenecut-aware-qp=0conformance-window-offsets / right=0 / bottom=0 / NTMzNTQ= / decoder-max-rate=0 / no-vbv-live-multi-pass
  35. Language                                 : English
  36. Default                                  : Yes
  37. Forced                                   : No
  38. Color range                              : Limited
  39. Color primaries                          : BT.709
  40. Transfer characteristics                 : BT.709
  41. Matrix coefficients                      : BT.709
  42. Audio
  43. ID                                       : 2
  44. Format                                   : DTS XLL
  45. Format/Info                              : Digital Theater Systems
  46. Commercial name                          : DTS-HD Master Audio
  47. Codec ID                                 : A_DTS
  48. Duration                                 : 2 h 21 min
  49. Bit rate mode                            : Variable
  50. Bit rate                                 : 3 440 kb/s
  51. Channel(s)                               : 6 channels
  52. Channel layout                           : C L R Ls Rs LFE
  53. Sampling rate                            : 48.0 kHz
  54. Frame rate                               : 93.750 FPS (512 SPF)
  55. Bit depth                                : 24 bits
  56. Compression mode                         : Lossless
  57. Stream size                              : 3.41 GiB (33%)
  58. Title                                    : English DTS-HD Master Audio 5.1 @ 3440 kbps
  59. Language                                 : English
  60. Default                                  : Yes
  61. Forced                                   : No
  62. Text #1
  63. ID                                       : 3
  64. Format                                   : PGS
  65. Codec ID                                 : S_HDMV/PGS
  66. Codec ID/Info                            : Picture based subtitle format used on BDs/HD-DVDs
  67. Duration                                 : 2 h 14 min
  68. Bit rate                                 : 49.4 kb/s
  69. Count of elements                        : 4300
  70. Stream size                              : 47.4 MiB (0%)
  71. Title                                    : Eng/SUP
  72. Language                                 : English
  73. Default                                  : No
  74. Forced                                   : No
  75. Text #2
  76. ID                                       : 4
  77. Format                                   : PGS
  78. Codec ID                                 : S_HDMV/PGS
  79. Codec ID/Info                            : Picture based subtitle format used on BDs/HD-DVDs
  80. Duration                                 : 2 h 15 min
  81. Bit rate                                 : 29.5 kb/s
  82. Count of elements                        : 4114
  83. Stream size                              : 28.6 MiB (0%)
  84. Title                                    : Chs/SUP  简体
  85. Language                                 : Chinese
  86. Default                                  : Yes
  87. Forced                                   : No
  88. Text #3
  89. ID                                       : 5
  90. Format                                   : PGS
  91. Codec ID                                 : S_HDMV/PGS
  92. Codec ID/Info                            : Picture based subtitle format used on BDs/HD-DVDs
  93. Duration                                 : 2 h 15 min
  94. Bit rate                                 : 30.4 kb/s
  95. Count of elements                        : 4114
  96. Stream size                              : 29.5 MiB (0%)
  97. Title                                    : Cht/SUP  繁体
  98. Language                                 : Chinese
  99. Default                                  : No
  100. Forced                                   : No
  101. Menu
  102. 00:00:00.000                             : en:第 01 章
  103. 00:06:30.056                             : en:第 02 章
  104. 00:13:57.003                             : en:第 03 章
  105. 00:18:37.616                             : en:第 04 章
  106. 00:27:02.579                             : en:第 05 章
  107. 00:36:52.085                             : en:第 06 章
  108. 00:43:20.473                             : en:第 07 章
  109. 00:50:51.048                             : en:第 08 章
  110. 00:57:18.352                             : en:第 09 章
  111. 01:06:05.587                             : en:第 10 章
  112. 01:14:26.587                             : en:第 11 章
  113. 01:21:41.438                             : en:第 12 章
  114. 01:28:25.258                             : en:第 13 章
  115. 01:32:27.167                             : en:第 14 章
  116. 01:38:30.488                             : en:第 15 章
  117. 01:46:41.729                             : en:第 16 章
  118. 01:55:12.155                             : en:第 17 章
  119. 02:01:36.206                             : en:第 18 章
  120. 02:08:14.103                             : en:第 19 章
  121. 02:14:39.655                             : en:第 20 章
复制代码




TAGS 剧情 惊悚 悬疑 /

磁力链:
  • magnet:?xt=urn:btih:B415228E6164F078202C1E9BB877621460845407
上传的附件:
BT9527电影天堂 1、BT9527电影天堂提供的BT文件均来源于互联网抓取,只供网友学习交流、技术提升使用。
2、我们遵守BitTorrent点对点协议原则,任何版权问题请联系原资源发布商,我们不处理任何版权纠纷,谢谢!如有争议请联系邮箱:BT9527#hotmail.com(#换成@)
3、如果您发现某页面或地址有错误,请联系站长邮箱BT9527#hotmail.com(#换成@),我们会尽快处理。您的热心是对BT9527电影天堂最大的支持。
4、本站建议去正规影院观看电影以支持电影行业发展。
最新回复 (0)

你可以在 登录 or 注册 后,对此帖发表评论!

返回
发新帖