黄飞鸿之铁鸡斗蜈蚣[国语音轨/中文字幕].Last.Hero.in.China.1993.BluRay.1080p.x265.2Audio-MiniHD 6.19GB

版主小s 1月前 111



◎译  名 黄飞鸿之铁鸡斗蜈蚣 / Last Hero in China / Deadly China Hero / Claws of Steel / Iron Rooster Vs. Centipede
◎片  名 黃飛鴻之鐵雞鬥蜈蚣
◎年  代 1993
◎产  地 中国香港
◎类  别 喜剧 / 动作 / 历史 / 武侠
◎语  言 粤语
◎上映日期 1993-04-01(中国香港)
◎IMDb链接 https://www.imdb.com/title/tt0108593/
◎豆瓣评分 7.2/10 (48663人评价)
◎豆瓣链接 https://movie.douban.com/subject/1305201/
◎片  长 111分钟
◎导  演 王晶 Jing Wong (id:1274331)
◎编  剧 王晶 Jing Wong (id:1274331)
◎演  员 李连杰 Jet Li (id:1025146)
       张敏 Sharla Cheung (id:1005297)
       张卫健 Dicky Cheung (id:1005575)
       陈百祥 Pak-cheung Chan (id:1070608)
       袁咏仪 Anita Yuen (id:1050693)
       徐忠信 Alan Chui Chung San (id:1327646)
       梁家仁 Ka-Yan Leung (id:1008125)
       苑琼丹 King-Tan Yuen (id:1274445)
       张兰英 Linda Cheung (id:1328094)
       秦贵宝 Kwai Po Chun (id:1417957)
       朱斗 Tau Chu (id:1441054)
       刘家辉 Chia Hui Liu (id:1121285)
       元武 Wu Yuan (id:1344878)
       朱铁和 Tiet Wo Chu (id:1331124)
       林富伟 Fu-wai Lam (id:1433957)
       李华月 Julie Lee (id:1324131)
       钟发 Fat Chung (id:1314531)
       贾天怡 Tin Yi Ku (id:1366833)
       梁佩瑚 Isabel Leung (id:1361261)
       吴育枢 Jackson Ng Yuk-Sue (id:1361260)
       雷达 Tat Lui (id:1361262)
       司马华龙 Wah Lung Szema (id:1379074)
       李连杰 Jet Li (id:1025146)
       向华强 Charles Heung (id:1037691)
       雷颂德 Mark Lui (id:1052286)
       周锦祥 Gam Cheung Chow (id:1315803)
       马楚成 Jingle Ma (id:1280599)
       刘满棠 Moon-Tong Lau (id:1289492)
       邹义训 Yixun Chow (id:1426899)
       陈玉明 Yuk-ming Chan (id:1433384)
       凌志雄 Chi-hung Ling (id:1440984)

◎简  介
  黄飞鸿也会做糗事:听信弟子梁宽(梁家仁 饰)及牙擦苏(张卫健 饰),他竟把宝芝林搬到了妓院旁边。但这令他的众弟子喜上眉梢。妓院老板黄狮虎(陈百祥 饰)将黄飞鸿视作偶像,一心想拜他为师,却不被理会,其妹妹(袁咏仪 饰)等妓女更是被他敬而远之。清廷命官雷一笑(徐忠信 饰)实是义和团余孽,他勾结上级官员及能仁寺花和尚掳掠女性,准备将她们贩卖到南洋。 剧情简介: 黄飞鸿得知雷的阴谋后,开始想办法将被抢女性解救,被雷视作眼中钉。不久他同梁宽、牙擦苏等人表演舞狮时,因之前为救治病人拿自己当实验品服用西药,双耳突然失聪,被雷及其手下装扮的蜈蚣击败。回佛山医治路上,他遇到将他误会的铁燕(张敏 饰)和其父亲,他们从四川来到广州找寻失踪的妹妹时,曾因听闻雷一笑与黄飞鸿的对话将两人视为一伙。

  1. ##### MediaInfo ######
  2. General
  3. Unique ID                                : 213884431790045293963055248759106182438 (0xA0E8A4A797DDEE889E2377AD9C1A1D26)
  4. Complete name                            : Last.Hero.in.China.1993.BluRay.1080p.x265.2Audio-MiniHD.mkv
  5. Format                                   : Matroska
  6. Format version                           : Version 4
  7. File size                                : 6.19 GiB
  8. Duration                                 : 1 h 50 min
  9. Overall bit rate                         : 8 022 kb/s
  10. Encoded date                             : UTC 2015-03-12 07:44:06
  11. Writing application                      : mkvmerge v7.2.0 ('On Every Street') 32bit built on Sep 13 2014 15:42:11
  12. Writing library                          : libebml v1.3.0 + libmatroska v1.4.1
  13. Video
  14. ID                                       : 1
  15. Format                                   : HEVC
  16. Format/Info                              : High Efficiency Video Coding
  17. Codec ID                                 : V_MPEGH/ISO/HEVC
  18. Duration                                 : 1 h 50 min
  19. Bit rate                                 : 7 540 kb/s
  20. Width                                    : 1 920 pixels
  21. Height                                   : 1 080 pixels
  22. Display aspect ratio                     : 16:9
  23. Frame rate mode                          : Constant
  24. Frame rate                               : 24.000 FPS
  25. Bits/(Pixel*Frame)                       : 0.151
  26. Stream size                              : 5.81 GiB (94%)
  27. Default                                  : Yes
  28. Forced                                   : No
  29. Audio #1
  30. ID                                       : 2
  31. Format                                   : AAC LC
  32. Format/Info                              : Advanced Audio Codec Low Complexity
  33. Codec ID                                 : A_AAC-2
  34. Duration                                 : 1 h 50 min
  35. Bit rate                                 : 126 kb/s
  36. Channel(s)                               : 2 channels
  37. Channel layout                           : L R
  38. Sampling rate                            : 48.0 kHz
  39. Frame rate                               : 46.875 FPS (1024 SPF)
  40. Compression mode                         : Lossy
  41. Delay relative to video                  : 20 ms
  42. Stream size                              : 99.5 MiB (2%)
  43. Language                                 : Chinese
  44. Default                                  : Yes
  45. Forced                                   : No
  46. Audio #2
  47. ID                                       : 3
  48. Format                                   : AAC LC
  49. Format/Info                              : Advanced Audio Codec Low Complexity
  50. Codec ID                                 : A_AAC-2
  51. Duration                                 : 1 h 50 min
  52. Bit rate                                 : 324 kb/s
  53. Channel(s)                               : 2 channels
  54. Channel layout                           : L R
  55. Sampling rate                            : 48.0 kHz
  56. Frame rate                               : 46.875 FPS (1024 SPF)
  57. Compression mode                         : Lossy
  58. Delay relative to video                  : 20 ms
  59. Stream size                              : 256 MiB (4%)
  60. Language                                 : Chinese
  61. Default                                  : No
  62. Forced                                   : No
  63. Text #1
  64. ID                                       : 4
  65. Format                                   : PGS
  66. Muxing mode                              : zlib
  67. Codec ID                                 : S_HDMV/PGS
  68. Codec ID/Info                            : Picture based subtitle format used on BDs/HD-DVDs
  69. Duration                                 : 1 h 48 min
  70. Bit rate                                 : 15.7 kb/s
  71. Count of elements                        : 2398
  72. Stream size                              : 12.2 MiB (0%)
  73. Language                                 : Chinese
  74. Default                                  : Yes
  75. Forced                                   : No
  76. Text #2
  77. ID                                       : 5
  78. Format                                   : PGS
  79. Muxing mode                              : zlib
  80. Codec ID                                 : S_HDMV/PGS
  81. Codec ID/Info                            : Picture based subtitle format used on BDs/HD-DVDs
  82. Duration                                 : 1 h 48 min
  83. Bit rate                                 : 14.4 kb/s
  84. Count of elements                        : 2398
  85. Stream size                              : 11.2 MiB (0%)
  86. Language                                 : Chinese
  87. Default                                  : No
  88. Forced                                   : No
  89. Menu
  90. 00:00:00.000                             : :Chapter 01
  91. 00:07:46.375                             : :Chapter 02
  92. 00:13:33.583                             : :Chapter 03
  93. 00:22:18.958                             : :Chapter 04
  94. 00:27:59.458                             : :Chapter 05
  95. 00:36:22.708                             : :Chapter 06
  96. 00:46:34.208                             : :Chapter 07
  97. 00:59:16.791                             : :Chapter 08
  98. 01:11:09.125                             : :Chapter 09
  99. 01:19:47.750                             : :Chapter 10
  100. 01:25:28.291                             : :Chapter 11
  101. 01:38:19.333                             : :Chapter 12
复制代码




TAGS 武侠 动作 喜剧 历史 /

磁力链:
  • magnet:?xt=urn:btih:8E51689761A05360E2746E09EDAC2CD605F2B2A1
上传的附件:
BT9527电影天堂 1、BT9527电影天堂提供的BT文件均来源于互联网抓取,只供网友学习交流、技术提升使用。
2、我们遵守BitTorrent点对点协议原则,任何版权问题请联系原资源发布商,我们不处理任何版权纠纷,谢谢!如有争议请联系邮箱:BT9527#hotmail.com(#换成@)
3、如果您发现某页面或地址有错误,请联系站长邮箱BT9527#hotmail.com(#换成@),我们会尽快处理。您的热心是对BT9527电影天堂最大的支持。
4、本站建议去正规影院观看电影以支持电影行业发展。
最新回复 (0)

你可以在 登录 or 注册 后,对此帖发表评论!

返回
发新帖