魔鬼司令[国英多音轨/中英字幕].Commando.1985.BluRay.1080p.x265.3Audio-MiniHD 4.06GB

版主小s 1月前 193



◎译  名 魔鬼司令 / 独闯龙潭 / 突击队员
◎片  名 Commando
◎年  代 1985
◎产  地 美国
◎类  别 喜剧 / 动作 / 惊悚 / 冒险
◎语  言 英语
◎上映日期 1985-10-04
◎IMDb链接 https://www.imdb.com/title/tt0088944/
◎豆瓣评分 7.3/10 (10608人评价)
◎豆瓣链接 https://movie.douban.com/subject/1296942/
◎片  长 90 分钟
◎导  演 马克·L·莱斯特 Mark L. Lester (id:1036909)
◎编  剧 斯蒂芬·E.德·索萨 Steven E. de Souza (id:1041340)
       杰夫·洛布 Jeph Loeb (id:1123065)
◎演  员 阿诺·施瓦辛格 Arnold Schwarzenegger (id:1035643)
       蕾伊·道恩·钟 Rae Dawn Chong (id:1031963)
       丹·哈达亚 Dan Hedaya (id:1025245)
       弗农·威尔斯 Vernon Wells (id:1164947)
       艾娃·卡德尔 Ava Cadell (id:1069278)
       艾莉莎·米兰诺 Alyssa Milano (id:1036319)
       比尔·杜克 Bill Duke (id:1032038)
       大卫·帕特里克·凯利 David Patrick Kelly (id:1105073)
       布兰斯康比·里奇蒙德 Branscombe Richmond (id:1025323)
       德鲁斯奈德 Drew Snyder (id:1152588)
       小托马斯·罗萨莱斯 Thomas Rosales Jr. (id:1143150)
       乔治·费舍尔 George Fisher (id:1083425)
       Michael Adams Michael Adams (id:1059891)
       Julie Hayek Julie Hayek (id:1095461)
       切尔西.菲尔德 Chelsea Field (id:1055275)
       Matt Landers Matt Landers (id:1112481)
       鲍勃·米诺 Bob Minor (id:1120124)
       比尔·帕克斯顿 Bill Paxton (id:1048134)
       Charles Meshack Charles Meshack (id:1123928)
       詹姆斯·奥尔森 James Olson (id:1134184)
       Walter Scott Walter Scott (id:1140831)
       Sharon Wyatt Sharon Wyatt (id:1161652)
       乔·西尔沃 Joel Silver (id:1010670)
       杰夫·洛布 Jeph Loeb (id:1123065)
       罗伯特·考斯伯格 Robert Kosberg (id:1037534)
       詹姆斯·霍纳 James Horner (id:1025277)
       马修·莱昂涅蒂 Matthew F. Leonetti (id:1025467)
       格伦·法尔 Glenn Farr (id:1283457)
       约翰·F·林克 John F. Link (id:1290096)
       马克·戈德布拉特 Mark Goldblatt (id:1285044)
       杰基?伯奇 Jackie Burch (id:1279621)
       罗伯特·古尔德 Robert Gould (id:1285237)
       约翰·瓦隆 John Vallone (id:1011501)
       乔伊·萨帕塔 Joy Zapata (id:1301634)
       Joe McKinney Joe McKinney (id:1291682)
       Bennie E. Dobbins Bennie E. Dobbins (id:1089256)
       吉姆·丹弗斯 Jim Danforth (id:1281771)
       Alan G. Markowitz Alan G. Markowitz (id:1291028)

◎简  介
  平静的城市中突然发生了一系列暗杀事件,受害者皆为退役特种部队上校约翰(Arnold Schwarzenegger 饰)的昔日部下,老上司克比为此拜访了约翰的山间小屋向其提出警告,退隐多时的约翰只想同尚年幼的女儿詹妮享受生活,不愿再次卷入仇杀,岂料这次的敌人尾随克比寻至约翰住处,他们掳走了詹妮,强迫约翰刺杀奥维地共和国总统,以便为幕后策划者阿里乌斯登上该国总统之位铺平道路。                                    
                                约翰当然不会就范,他摆脱了随行的监视人员,从飞机一跃而下,暂时脱离了阿里乌斯的控制之后,他只有十一小时救出詹妮。约翰在机场请求素不相识的黑人姑娘西迪(Rae Dawn Chong 饰)相助,两人一同经历了连串的火爆战斗,西迪对这位陌生魁梧男子的态度由戒备转向全力协助,并最终登上了阿里乌斯藏匿的岛屿……

  1. ##### MediaInfo ######
  2. General
  3. Unique ID                                : 183214045323218228485639561718316208801 (0x89D5BDDA4939D45C8CA404C2012112A1)
  4. Complete name                            : Commando.1985.BluRay.1080p.x265.3Audio-MiniHD.mkv
  5. Format                                   : Matroska
  6. Format version                           : Version 4
  7. File size                                : 4.06 GiB
  8. Duration                                 : 1 h 30 min
  9. Overall bit rate                         : 6 438 kb/s
  10. Encoded date                             : UTC 2014-12-19 14:29:49
  11. Writing application                      : mkvmerge v7.2.0 ('On Every Street') 32bit built on Sep 13 2014 15:42:11
  12. Writing library                          : libebml v1.3.0 + libmatroska v1.4.1
  13. Video
  14. ID                                       : 1
  15. Format                                   : HEVC
  16. Format/Info                              : High Efficiency Video Coding
  17. Codec ID                                 : V_MPEGH/ISO/HEVC
  18. Duration                                 : 1 h 30 min
  19. Bit rate                                 : 5 751 kb/s
  20. Width                                    : 1 920 pixels
  21. Height                                   : 1 040 pixels
  22. Display aspect ratio                     : 1.85:1
  23. Frame rate mode                          : Constant
  24. Frame rate                               : 23.976 (24000/1001/53354) FPS
  25. Bits/(Pixel*Frame)                       : 0.120
  26. Stream size                              : 3.63 GiB (89%)
  27. Default                                  : Yes
  28. Forced                                   : No
  29. Audio #1
  30. ID                                       : 2
  31. Format                                   : AAC LC
  32. Format/Info                              : Advanced Audio Codec Low Complexity
  33. Codec ID                                 : A_AAC-2
  34. Duration                                 : 1 h 30 min
  35. Bit rate                                 : 410 kb/s
  36. Channel(s)                               : 6 channels
  37. Channel layout                           : C L R Ls Rs LFE
  38. Sampling rate                            : 48.0 kHz
  39. Frame rate                               : 46.875 FPS (1024 SPF)
  40. Compression mode                         : Lossy
  41. Delay relative to video                  : 20 ms
  42. Stream size                              : 265 MiB (6%)
  43. Language                                 : English
  44. Default                                  : Yes
  45. Forced                                   : No
  46. Audio #2
  47. ID                                       : 3
  48. Format                                   : AAC LC
  49. Format/Info                              : Advanced Audio Codec Low Complexity
  50. Codec ID                                 : A_AAC-2
  51. Duration                                 : 1 h 30 min
  52. Bit rate                                 : 132 kb/s
  53. Channel(s)                               : 2 channels
  54. Channel layout                           : L R
  55. Sampling rate                            : 48.0 kHz
  56. Frame rate                               : 46.875 FPS (1024 SPF)
  57. Compression mode                         : Lossy
  58. Delay relative to video                  : 956 ms
  59. Stream size                              : 86.1 MiB (2%)
  60. Language                                 : Chinese
  61. Default                                  : No
  62. Forced                                   : No
  63. Audio #3
  64. ID                                       : 4
  65. Format                                   : AAC LC
  66. Format/Info                              : Advanced Audio Codec Low Complexity
  67. Codec ID                                 : A_AAC-2
  68. Duration                                 : 1 h 30 min
  69. Bit rate                                 : 115 kb/s
  70. Channel(s)                               : 2 channels
  71. Channel layout                           : L R
  72. Sampling rate                            : 48.0 kHz
  73. Frame rate                               : 46.875 FPS (1024 SPF)
  74. Compression mode                         : Lossy
  75. Delay relative to video                  : 956 ms
  76. Stream size                              : 74.0 MiB (2%)
  77. Language                                 : Chinese
  78. Default                                  : No
  79. Forced                                   : No
  80. Text #1
  81. ID                                       : 5
  82. Format                                   : PGS
  83. Muxing mode                              : zlib
  84. Codec ID                                 : S_HDMV/PGS
  85. Codec ID/Info                            : Picture based subtitle format used on BDs/HD-DVDs
  86. Duration                                 : 1 h 29 min
  87. Bit rate                                 : 13.1 kb/s
  88. Count of elements                        : 1260
  89. Stream size                              : 8.35 MiB (0%)
  90. Language                                 : English
  91. Default                                  : Yes
  92. Forced                                   : No
  93. Text #2
  94. ID                                       : 6
  95. Format                                   : PGS
  96. Muxing mode                              : zlib
  97. Codec ID                                 : S_HDMV/PGS
  98. Codec ID/Info                            : Picture based subtitle format used on BDs/HD-DVDs
  99. Duration                                 : 1 h 25 min
  100. Bit rate                                 : 13.9 kb/s
  101. Count of elements                        : 1220
  102. Stream size                              : 8.46 MiB (0%)
  103. Language                                 : Chinese
  104. Default                                  : No
  105. Forced                                   : No
  106. Menu
  107. 00:00:00.000                             : :Chapter 01
  108. 00:04:14.837                             : :Chapter 02
  109. 00:08:16.078                             : :Chapter 03
  110. 00:11:26.352                             : :Chapter 04
  111. 00:16:35.703                             : :Chapter 05
  112. 00:19:16.780                             : :Chapter 06
  113. 00:22:46.948                             : :Chapter 07
  114. 00:26:42.267                             : :Chapter 08
  115. 00:29:03.241                             : :Chapter 09
  116. 00:32:14.766                             : :Chapter 10
  117. 00:37:39.799                             : :Chapter 11
  118. 00:43:59.219                             : :Chapter 12
  119. 00:49:14.993                             : :Chapter 13
  120. 00:53:45.889                             : :Chapter 14
  121. 00:56:32.347                             : :Chapter 15
  122. 00:59:14.509                             : :Chapter 16
  123. 01:04:45.381                             : :Chapter 17
  124. 01:06:58.556                             : :Chapter 18
  125. 01:10:21.967                             : :Chapter 19
  126. 01:12:52.618                             : :Chapter 20
  127. 01:17:48.246                             : :Chapter 21
  128. 01:19:48.200                             : :Chapter 22
  129. 01:24:37.363                             : :Chapter 23
  130. 01:26:55.293                             : :Chapter 24
复制代码




TAGS 动作 冒险 惊悚 喜剧 /

磁力链:
  • magnet:?xt=urn:btih:C3A79C422884686A2DF7DF43AAEB77B8F6C0525F
上传的附件:
BT9527电影天堂 1、BT9527电影天堂提供的BT文件均来源于互联网抓取,只供网友学习交流、技术提升使用。
2、我们遵守BitTorrent点对点协议原则,任何版权问题请联系原资源发布商,我们不处理任何版权纠纷,谢谢!如有争议请联系邮箱:BT9527#hotmail.com(#换成@)
3、如果您发现某页面或地址有错误,请联系站长邮箱BT9527#hotmail.com(#换成@),我们会尽快处理。您的热心是对BT9527电影天堂最大的支持。
4、本站建议去正规影院观看电影以支持电影行业发展。
最新回复 (0)

你可以在 登录 or 注册 后,对此帖发表评论!

返回
发新帖