鬼影[中英字幕].Shutter.2004.BluRay.1080p.x265.10bit-MiniHD 6.06GB

版主小s 1月前 132



◎译  名 鬼影 / Están entre nosotros / Shutter: They Are Around Us / Shutter
◎片  名 ???????? ???????????
◎年  代 2004
◎产  地 泰国
◎类  别 悬疑 / 惊悚 / 恐怖
◎语  言 泰语
◎上映日期 2004-09-09(泰国)
◎IMDb链接 https://www.imdb.com/title/tt0440803/
◎豆瓣评分 7.7/10 (109116人评价)
◎豆瓣链接 https://movie.douban.com/subject/1773217/
◎片  长 97 分钟
◎导  演 班庄·比辛达拿刚 Banjong Pisanthanakun (id:1275003)
       柏德潘·王般 Parkpoom Wongpoom (id:1028672)
◎编  剧 班庄·比辛达拿刚 Banjong Pisanthanakun (id:1275003)
       索分·沙达菲斯 Sopon Sukdapisit (id:1339016)
       柏德潘·王般 Parkpoom Wongpoom (id:1028672)
◎演  员 阿南达·爱华灵咸 Ananda Everingham (id:1018444)
       娜特慧兰·塔美 Natthaweeranuch Thongmee (id:1041591)
       阿西塔·西卡玛娜 Achita Sikamana (id:1319712)
       瓦莎娜·查拉科恩 Vasana Chalakorn (id:1460885)
       查特柴·庞普拉帕潘 Chartchai Pongprapapan (id:1302772)
       利·查泰米提古 Lee Chatametikool (id:1280546)

◎简  介
  年轻的自由摄影师Thun(Ananda Everingham)这日携女友Jane(Natthaweeranuch Thongmee)与大学同窗聚会完毕开车归家,途中Jane将一名飘忽而至的女子撞倒在地。Jane欲下车查看女子伤势,被Thun劝阻,两人匆忙逃离肇事现场。Jane开始终日坐立不安,并指责Thun冷血,Thun只叫她放宽心莫多虑。                                    
                                Jane的担心并非多余,一连串怪事紧接将他们找上:Thun所拍的许多照片上多出一个模糊的女影、颈部莫名疼痛起来、那日聚会的同窗先后跳楼死去……两人更在暗室多次突然陷入恐怖氛围中。为了摆脱噩梦,Jane决定展开深入调查,与Thun有关的一个女子的悲惨经历慢慢浮出水面。

  1. ##### MediaInfo ######
  2. General
  3. Unique ID                                : 174788813780978844126775369149538571568 (0x837F19DDC9CF2A5FB18104E1B4C31530)
  4. Complete name                            : Shutter.2004.BluRay.1080p.x265.10bit-MiniHD.mkv
  5. Format                                   : Matroska
  6. Format version                           : Version 4
  7. File size                                : 6.06 GiB
  8. Duration                                 : 1 h 36 min
  9. Overall bit rate                         : 8 973 kb/s
  10. Encoded date                             : UTC 2017-01-10 12:44:45
  11. Writing application                      : mkvmerge v9.2.0 ('Photograph') 32bit
  12. Writing library                          : libebml v1.3.3 + libmatroska v1.4.4
  13. Video
  14. ID                                       : 1
  15. Format                                   : HEVC
  16. Format/Info                              : High Efficiency Video Coding
  17. Format profile                           : Main 10@L4@Main
  18. Codec ID                                 : V_MPEGH/ISO/HEVC
  19. Duration                                 : 1 h 36 min
  20. Bit rate                                 : 8 155 kb/s
  21. Width                                    : 1 920 pixels
  22. Height                                   : 1 080 pixels
  23. Display aspect ratio                     : 16:9
  24. Frame rate mode                          : Constant
  25. Frame rate                               : 24.000 FPS
  26. Color space                              : YUV
  27. Chroma subsampling                       : 4:2:0
  28. Bit depth                                : 10 bits
  29. Bits/(Pixel*Frame)                       : 0.164
  30. Stream size                              : 5.51 GiB (91%)
  31. Writing library                          : x265 2.2+5-e40db0bdde4a:[Windows][GCC 6.2.0][64 bit] 10bit
  32. Encoding settings                        : cpuid=533541173503 / frame-threads=6 / numa-pools=36 / wpp / no-pmode / no-pme / no-psnr / no-ssim / log-level=2 / input-csp=1 / input-res=1920x1080 / interlace=0 / total-frames=139301 / level-idc=0 / high-tier=1 / uhd-bd=0 / ref=5 / no-allow-non-conformance / no-repeat-headers / annexb / no-aud / no-hrd / info / hash=0 / no-temporal-layers / no-open-gop / min-keyint=1 / keyint=360 / bframes=8 / b-adapt=2 / b-pyramid / bframe-bias=0 / rc-lookahead=60 / lookahead-slices=4 / NTMzNTQ=uuDQuD2mJt9fsCf / scenecut=40 / no-intra-refresh / ctu=32 / min-cu-size=8 / rect / no-amp / max-tu-size=16 / tu-inter-depth=2 / tu-intra-depth=2 / limit-tu=0 / rdoq-level=2 / signhide / no-tskip / nr-intra=0 / nr-inter=0 / no-constrained-intra / no-strong-intra-smoothing / max-merge=3 / limit-refs=3 / limit-modes / me=3 / subme=5 / merange=25 / temporal-mvp / weightp / weightb / no-analyze-src-pics / deblock=-1:-1 / no-sao / no-sao-non-deblock / rd=4 / no-early-skip / rskip / no-fast-intra / no-tskip-fast / no-cu-lossless / b-intra / rdpenalty=1 / psy-rd=2.00 / psy-rdoq=5.00 / no-rd-refine / analysis-mode=0 / no-lossless / cbqpoffs=-2 / crqpoffs=-2 / rc=crf / crf=21.0 / qcomp=0.65 / qpstep=4 / stats-write=0 / stats-read=0 / ipratio=1.40 / pbratio=1.30 / aq-mode=3 / aq-strength=0.80 / cutree / zone-count=0 / no-strict-cbr / qg-size=16 / no-rc-grain / qpmax=69 / qpmin=0 / sar=0 / overscan=0 / videoformat=5 / range=0 / colorprim=1 / transfer=2 / colormatrix=2 / chromaloc=0 / display-window=0 / max-cll=0,0 / min-luma=0 / max-luma=1023 / log2-max-poc-lsb=8 / vui-timing-info / vui-hrd-info / slices=1 / opt-qp-pps / opt-ref-list-length-pps / no-multi-pass-opt-rps / scenecut-bias=0.05 / no-opt-cu-delta-qp
  33. Default                                  : Yes
  34. Forced                                   : No
  35. Color range                              : Limited
  36. Color primaries                          : BT.709
  37. Audio
  38. ID                                       : 2
  39. Format                                   : AC-3
  40. Format/Info                              : Audio Coding 3
  41. Commercial name                          : Dolby Digital
  42. Codec ID                                 : A_AC3
  43. Duration                                 : 1 h 36 min
  44. Bit rate mode                            : Constant
  45. Bit rate                                 : 640 kb/s
  46. Channel(s)                               : 6 channels
  47. Channel layout                           : L R C LFE Ls Rs
  48. Sampling rate                            : 48.0 kHz
  49. Frame rate                               : 31.250 FPS (1536 SPF)
  50. Compression mode                         : Lossy
  51. Stream size                              : 443 MiB (7%)
  52. Language                                 : Thai
  53. Service kind                             : Complete Main
  54. Default                                  : Yes
  55. Forced                                   : No
  56. Text #1
  57. ID                                       : 3
  58. Format                                   : PGS
  59. Muxing mode                              : zlib
  60. Codec ID                                 : S_HDMV/PGS
  61. Codec ID/Info                            : Picture based subtitle format used on BDs/HD-DVDs
  62. Language                                 : English
  63. Default                                  : Yes
  64. Forced                                   : No
  65. Text #2
  66. ID                                       : 4
  67. Format                                   : PGS
  68. Muxing mode                              : zlib
  69. Codec ID                                 : S_HDMV/PGS
  70. Codec ID/Info                            : Picture based subtitle format used on BDs/HD-DVDs
  71. Language                                 : Chinese
  72. Default                                  : No
  73. Forced                                   : No
  74. Text #3
  75. ID                                       : 5
  76. Format                                   : PGS
  77. Muxing mode                              : zlib
  78. Codec ID                                 : S_HDMV/PGS
  79. Codec ID/Info                            : Picture based subtitle format used on BDs/HD-DVDs
  80. Language                                 : Chinese
  81. Default                                  : No
  82. Forced                                   : No
  83. Menu
  84. 00:00:00.000                             : en:Chapter 01
  85. 00:07:57.166                             : en:Chapter 02
  86. 00:15:42.541                             : en:Chapter 03
  87. 00:23:48.333                             : en:Chapter 04
  88. 00:31:46.833                             : en:Chapter 05
  89. 00:39:35.041                             : en:Chapter 06
  90. 00:47:19.208                             : en:Chapter 07
  91. 00:56:15.458                             : en:Chapter 08
  92. 01:02:14.208                             : en:Chapter 09
  93. 01:12:48.291                             : en:Chapter 10
  94. 01:18:01.041                             : en:Chapter 11
  95. 01:27:29.541                             : en:Chapter 12
复制代码




TAGS 惊悚 恐怖 悬疑 /

磁力链:
  • magnet:?xt=urn:btih:44A8733556E5BA4312D95B141AB2E9B3B679E8C8
上传的附件:
BT9527电影天堂 1、BT9527电影天堂提供的BT文件均来源于互联网抓取,只供网友学习交流、技术提升使用。
2、我们遵守BitTorrent点对点协议原则,任何版权问题请联系原资源发布商,我们不处理任何版权纠纷,谢谢!如有争议请联系邮箱:BT9527#hotmail.com(#换成@)
3、如果您发现某页面或地址有错误,请联系站长邮箱BT9527#hotmail.com(#换成@),我们会尽快处理。您的热心是对BT9527电影天堂最大的支持。
4、本站建议去正规影院观看电影以支持电影行业发展。
最新回复 (0)

你可以在 登录 or 注册 后,对此帖发表评论!

返回
发新帖