风语者[国英多音轨/中英字幕].Windtalkers.2002.BluRay.1080p.x265.10bit.2Audio-MiniHD 7.16GB

版主小s 1月前 124



◎译  名 风语者 / 烈血追风(港) / 猎风行动(台) / 风语战士 / 追风战士 / 风斗士
◎片  名 Windtalkers
◎年  代 2002
◎产  地 美国
◎类  别 动作 / 历史 / 战争
◎语  言 英语 / 纳瓦霍语 / 日语
◎上映日期 2002-06-14(美国)
◎IMDb链接 https://www.imdb.com/title/tt0245562/
◎豆瓣评分 7.6/10 (77338人评价)
◎豆瓣链接 https://movie.douban.com/subject/1295120/
◎片  长 134分钟
◎导  演 吴宇森 John Woo (id:1027853)
◎编  剧 约翰·赖斯 John Rice (id:1407657)
       乔·巴特尔 Joe Batteer (id:1407658)
◎演  员 尼古拉斯·凯奇 Nicolas Cage (id:1054455)
       亚当·比奇 Adam Beach (id:1041158)
       彼得·斯特曼 Peter Stormare (id:1049549)
       诺亚·艾默里奇 Noah Emmerich (id:1032144)
       马克·鲁弗洛 Mark Ruffalo (id:1040505)
       布莱恩·范·霍尔特 Brian Van Holt (id:1010596)
       马丁·亨德森 Martin Henderson (id:1027267)
       弗兰西丝·奥康纳 Frances O'Connor (id:1017886)
       克里斯蒂安·史莱特 Christian Slater (id:1022597)
       詹森·艾萨克 Jason Isaacs (id:1017916)
       凯文·库尼 Kevin Cooney (id:1054975)
       霍尔姆斯·奥斯本 Holmes Osborne (id:1129889)
       卡梅伦·索尔 Cameron Thor (id:1032629)
       罗杰·威利 Roger Willie (id:1370136)
       詹姆斯·霍纳 James Horner (id:1025277)
       杰雷米·戴维森 Jeremy Davidson (id:1281867)
       克莱顿·巴伯 Clayton J. Barber (id:1277867)
       丹尼·皮尔斯 Denney Pierce (id:1294516)
       小泽吉郎 Yoshio Iizuka (id:1303940)
       Keii Johnston Keii Johnston (id:1287833)
       詹姆斯·霍纳 James Horner (id:1025277)
       史蒂夫·肯珀 Steven Kemper (id:1288378)
       明迪·马丁 Mindy Marin (id:1291003)
       Kevin Ishioka Kevin Ishioka (id:1287407)
       Richard C. Goddard Richard C. Goddard (id:1284996)
       史蒂夫·拉波特 Steve LaPorte (id:1289183)
       Mark Landon Mark Landon (id:1289362)
       Bill Myer Bill Myer (id:1291953)
       Linda Leiter Sharp Linda Leiter Sharp (id:1297339)
       里克·斯特拉顿 Rick Stratton (id:1298538)
       Allen Weisinger Allen Weisinger (id:1300632)
       Jamie Kelman Jamie Kelman (id:1288362)
       William A. Farley William A. Farley (id:1283448)
       Mitchell J. Coughlin Mitchell J. Coughlin (id:1281361)
       Janis Clark Janis Clark (id:1280850)
       布莱恩·斯莫兹 Brian Smrz (id:1297965)

◎简  介
  这是一部以二战中的太平洋战争为背景题材的影片。风中的语言,在战争中,指的是传递着无数秘密的电波。每个风语者都背负着高级军事机密。                                    
                                本·亚齐(亚当·比奇 Adam Beach 饰)就是这样一个风语者。海军陆战队员乔·恩德斯(尼古拉斯·凯奇 Nicolas Cage 饰) 奉命去保护本·亚齐和电波中的秘密。在举足轻重的塞班岛战役中,乔·恩德斯将会如何保护自己的战友和国家机密?他将面临怎样的抉择?这部影片,或许能给我们带来一些关于战争的思考。

  1. ##### MediaInfo ######
  2. General
  3. Unique ID                                : 194891310012336611436232220454594490560 (0x929EB373C6D29D23BD5B66D707DF30C0)
  4. Complete name                            : Windtalkers.2002.BluRay.1080p.x265.10bit.2Audio-MiniHD.mkv
  5. Format                                   : Matroska
  6. Format version                           : Version 4
  7. File size                                : 7.16 GiB
  8. Duration                                 : 2 h 14 min
  9. Overall bit rate                         : 7 630 kb/s
  10. Encoded date                             : UTC 2016-04-27 09:34:52
  11. Writing application                      : mkvmerge v7.5.0 ('Glass Culture') 64bit built on Jan  4 2015 16:48:44
  12. Writing library                          : libebml v1.3.1 + libmatroska v1.4.2
  13. Video
  14. ID                                       : 1
  15. Format                                   : HEVC
  16. Format/Info                              : High Efficiency Video Coding
  17. Codec ID                                 : V_MPEGH/ISO/HEVC
  18. Duration                                 : 2 h 14 min
  19. Bit rate                                 : 6 216 kb/s
  20. Width                                    : 1 920 pixels
  21. Height                                   : 800 pixels
  22. Display aspect ratio                     : 2.40:1
  23. Frame rate mode                          : Constant
  24. Frame rate                               : 23.976 (24000/1001/53354) FPS
  25. Bits/(Pixel*Frame)                       : 0.169
  26. Stream size                              : 5.83 GiB (81%)
  27. Default                                  : Yes
  28. Forced                                   : No
  29. Audio #1
  30. ID                                       : 2
  31. Format                                   : AC-3
  32. Format/Info                              : Audio Coding 3
  33. Commercial name                          : Dolby Digital
  34. Codec ID                                 : A_AC3
  35. Duration                                 : 2 h 14 min
  36. Bit rate mode                            : Constant
  37. Bit rate                                 : 640 kb/s
  38. Channel(s)                               : 6 channels
  39. Channel layout                           : L R C LFE Ls Rs
  40. Sampling rate                            : 48.0 kHz
  41. Frame rate                               : 31.250 FPS (1536 SPF)
  42. Compression mode                         : Lossy
  43. Stream size                              : 615 MiB (8%)
  44. Language                                 : English
  45. Service kind                             : Complete Main
  46. Default                                  : Yes
  47. Forced                                   : No
  48. Audio #2
  49. ID                                       : 3
  50. Format                                   : AC-3
  51. Format/Info                              : Audio Coding 3
  52. Commercial name                          : Dolby Digital
  53. Codec ID                                 : A_AC3
  54. Duration                                 : 2 h 14 min
  55. Bit rate mode                            : Constant
  56. Bit rate                                 : 640 kb/s
  57. Channel(s)                               : 6 channels
  58. Channel layout                           : L R C LFE Ls Rs
  59. Sampling rate                            : 48.0 kHz
  60. Frame rate                               : 31.250 FPS (1536 SPF)
  61. Compression mode                         : Lossy
  62. Delay relative to video                  : 2 s 50 ms
  63. Stream size                              : 614 MiB (8%)
  64. Language                                 : Chinese
  65. Service kind                             : Complete Main
  66. Default                                  : No
  67. Forced                                   : No
  68. Text #1
  69. ID                                       : 4
  70. Format                                   : PGS
  71. Muxing mode                              : zlib
  72. Codec ID                                 : S_HDMV/PGS
  73. Codec ID/Info                            : Picture based subtitle format used on BDs/HD-DVDs
  74. Duration                                 : 2 h 6 min
  75. Bit rate                                 : 7 337 b/s
  76. Count of elements                        : 2084
  77. Stream size                              : 6.65 MiB (0%)
  78. Language                                 : English
  79. Default                                  : Yes
  80. Forced                                   : No
  81. Text #2
  82. ID                                       : 5
  83. Format                                   : PGS
  84. Muxing mode                              : zlib
  85. Codec ID                                 : S_HDMV/PGS
  86. Codec ID/Info                            : Picture based subtitle format used on BDs/HD-DVDs
  87. Duration                                 : 2 h 9 min
  88. Bit rate                                 : 13.4 kb/s
  89. Count of elements                        : 2630
  90. Stream size                              : 12.5 MiB (0%)
  91. Language                                 : Chinese
  92. Default                                  : No
  93. Forced                                   : No
  94. Text #3
  95. ID                                       : 6
  96. Format                                   : PGS
  97. Muxing mode                              : zlib
  98. Codec ID                                 : S_HDMV/PGS
  99. Codec ID/Info                            : Picture based subtitle format used on BDs/HD-DVDs
  100. Duration                                 : 2 h 9 min
  101. Bit rate                                 : 19.0 kb/s
  102. Count of elements                        : 2472
  103. Stream size                              : 17.6 MiB (0%)
  104. Language                                 : Chinese
  105. Default                                  : No
  106. Forced                                   : No
  107. Text #4
  108. ID                                       : 7
  109. Format                                   : PGS
  110. Muxing mode                              : zlib
  111. Codec ID                                 : S_HDMV/PGS
  112. Codec ID/Info                            : Picture based subtitle format used on BDs/HD-DVDs
  113. Duration                                 : 2 h 9 min
  114. Bit rate                                 : 13.7 kb/s
  115. Count of elements                        : 2630
  116. Stream size                              : 12.7 MiB (0%)
  117. Language                                 : Chinese
  118. Default                                  : No
  119. Forced                                   : No
  120. Text #5
  121. ID                                       : 8
  122. Format                                   : PGS
  123. Muxing mode                              : zlib
  124. Codec ID                                 : S_HDMV/PGS
  125. Codec ID/Info                            : Picture based subtitle format used on BDs/HD-DVDs
  126. Duration                                 : 2 h 9 min
  127. Bit rate                                 : 18.7 kb/s
  128. Count of elements                        : 2472
  129. Stream size                              : 17.3 MiB (0%)
  130. Language                                 : Chinese
  131. Default                                  : No
  132. Forced                                   : No
  133. Text #6
  134. ID                                       : 9
  135. Format                                   : PGS
  136. Muxing mode                              : zlib
  137. Codec ID                                 : S_HDMV/PGS
  138. Codec ID/Info                            : Picture based subtitle format used on BDs/HD-DVDs
  139. Duration                                 : 2 h 9 min
  140. Bit rate                                 : 13.4 kb/s
  141. Count of elements                        : 2630
  142. Stream size                              : 12.5 MiB (0%)
  143. Language                                 : Chinese
  144. Default                                  : No
  145. Forced                                   : No
  146. Text #7
  147. ID                                       : 10
  148. Format                                   : PGS
  149. Muxing mode                              : zlib
  150. Codec ID                                 : S_HDMV/PGS
  151. Codec ID/Info                            : Picture based subtitle format used on BDs/HD-DVDs
  152. Duration                                 : 2 h 9 min
  153. Bit rate                                 : 13.7 kb/s
  154. Count of elements                        : 2630
  155. Stream size                              : 12.7 MiB (0%)
  156. Language                                 : Chinese
  157. Default                                  : No
  158. Forced                                   : No
  159. Text #8
  160. ID                                       : 11
  161. Format                                   : PGS
  162. Muxing mode                              : zlib
  163. Codec ID                                 : S_HDMV/PGS
  164. Codec ID/Info                            : Picture based subtitle format used on BDs/HD-DVDs
  165. Duration                                 : 2 h 9 min
  166. Bit rate                                 : 18.7 kb/s
  167. Count of elements                        : 2472
  168. Stream size                              : 17.3 MiB (0%)
  169. Language                                 : Chinese
  170. Default                                  : No
  171. Forced                                   : No
  172. Text #9
  173. ID                                       : 12
  174. Format                                   : PGS
  175. Muxing mode                              : zlib
  176. Codec ID                                 : S_HDMV/PGS
  177. Codec ID/Info                            : Picture based subtitle format used on BDs/HD-DVDs
  178. Duration                                 : 2 h 9 min
  179. Bit rate                                 : 19.0 kb/s
  180. Count of elements                        : 2472
  181. Stream size                              : 17.6 MiB (0%)
  182. Language                                 : Chinese
  183. Default                                  : No
  184. Forced                                   : No
  185. Menu
  186. 00:00:00.000                             : :Chapter 01
  187. 00:04:33.481                             : :Chapter 02
  188. 00:08:51.655                             : :Chapter 03
  189. 00:13:01.321                             : :Chapter 04
  190. 00:18:54.007                             : :Chapter 05
  191. 00:24:18.831                             : :Chapter 06
  192. 00:27:36.279                             : :Chapter 07
  193. 00:31:50.199                             : :Chapter 08
  194. 00:34:01.789                             : :Chapter 09
  195. 00:36:47.538                             : :Chapter 10
  196. 00:42:50.943                             : :Chapter 11
  197. 00:49:23.960                             : :Chapter 12
  198. 00:54:36.690                             : :Chapter 13
  199. 00:58:10.612                             : :Chapter 14
  200. 01:01:03.076                             : :Chapter 15
  201. 01:03:57.083                             : :Chapter 16
  202. 01:07:45.561                             : :Chapter 17
  203. 01:13:38.622                             : :Chapter 18
  204. 01:16:14.278                             : :Chapter 19
  205. 01:23:47.897                             : :Chapter 20
  206. 01:28:35.560                             : :Chapter 21
  207. 01:32:28.584                             : :Chapter 22
  208. 01:33:53.628                             : :Chapter 23
  209. 01:41:05.476                             : :Chapter 24
  210. 01:44:54.912                             : :Chapter 25
  211. 01:47:47.919                             : :Chapter 26
  212. 01:52:52.055                             : :Chapter 27
  213. 01:57:19.365                             : :Chapter 28
  214. 02:02:27.631                             : :Chapter 29
  215. 02:05:11.462                             : :Chapter 30
  216. 02:07:35.647                             : :Chapter 31
  217. 02:09:43.609                             : :Chapter 32
复制代码




TAGS 动作 历史 战争 /

磁力链:
  • magnet:?xt=urn:btih:F44790C5451E3A70244BCBA5AB05F9E93C569DD9
上传的附件:
BT9527电影天堂 1、BT9527电影天堂提供的BT文件均来源于互联网抓取,只供网友学习交流、技术提升使用。
2、我们遵守BitTorrent点对点协议原则,任何版权问题请联系原资源发布商,我们不处理任何版权纠纷,谢谢!如有争议请联系邮箱:BT9527#hotmail.com(#换成@)
3、如果您发现某页面或地址有错误,请联系站长邮箱BT9527#hotmail.com(#换成@),我们会尽快处理。您的热心是对BT9527电影天堂最大的支持。
4、本站建议去正规影院观看电影以支持电影行业发展。
最新回复 (0)

你可以在 登录 or 注册 后,对此帖发表评论!

返回
发新帖