刺猬索尼克[国英多音轨/中英字幕].sonic.the.hedgehog.2020.BluRay.2160p.x265.10bit.HDR.2Audios-MiniHD 14.19GB

版主小s 3月前 358

◎译 名 刺猬索尼克 / 超音鼠大电影(港) / 音速小子(台)

◎片 名 Sonic the Hedgehog

◎年 代 2020

◎产 地 加拿大 / 日本 / 美国

◎类 别 喜剧 / 动作 / 动画 / 冒险

◎语 言 英语

◎上映日期 2020-07-31(中国大陆) / 2020-02-14(美国)

◎IMDb链接 https://www.imdb.com/title/tt3794354/

◎豆瓣评分 6.0/10 (36560人评价)

◎豆瓣链接 https://movie.douban.com/subject/25905044/

◎片 长 99分钟

◎导 演 杰夫·福勒 Jeff Fowler (id:1024763)

◎编 剧 帕特里克·凯西 Patrick Casey (id:1427778)

乔什·米勒 Josh Miller (id:1028358)

中裕司 Yuji Naka (id:1052001)

大岛直人 Naoto Ohshima (id:1427779)

安原弘和 Hirokazu Yasuhara (id:1427780)

◎演 员 詹姆斯·麦斯登 James Marsden (id:1048023)

金·凯瑞 Jim Carrey (id:1054438)

本·施瓦茨 Ben Schwartz (id:1314604)

提卡·森普特 Tika Sumpter (id:1308681)

娜塔莎·罗斯韦尔 Natasha Rothwell (id:1362240)

亚当·佩里 Adam Pally (id:1314810)

李·马贾道布 Lee Majdoub (id:1235840)

尼尔·麦克唐纳 Neal McDonough (id:1031878)

汤姆·巴特勒 Tom Butler (id:1328973)

弗兰克·C·特纳 Frank C. Turner (id:1055991)

梅洛德·诺西普·尼曼 Melody Nosipho Niemann (id:1431330)

珊农·陈-肯特 Shannon Chan-Kent (id:1324249)

布拉德·凯利 Brad Kelly (id:1431331)

陆颖颐 Elfina Luk (id:1431328)

加里·切克 Gary Chalk (id:1075277)

迈克尔·霍根 Michael Hogan (id:1319546)

珍妮·克鲁蒂尔 Jeanie Cloutier (id:1431329)

贝利·斯科德里 Bailey Skodje (id:1370146)

杰夫·桑卡 Jeff Sanca (id:1197200)

丽莎·钱德勒 Lisa Chandler (id:1388203)

科琳·欧肖内希 Colleen O'Shaughnessey (id:1127809)

利安娜·拉普 Leanne Lapp (id:1410080)

戴博斯·霍华德 Debs Howard (id:1415808)

Chris Gailus (id:1257421)

Sean Campbell Sean Campbell (id:1395197)

尼尔·H·莫瑞兹 Neal H. Moritz (id:1019194)

德米特里·M·约翰逊 Dmitri M. Johnson (id:1247237)

蒂姆·米勒 Tim Miller (id:1324984)

琼基·XL Junkie XL (id:1037776)

斯蒂芬·F·温顿 Stephen F. Windon (id:1301075)

黛布拉·尼尔-费舍尔 Debra Neil-Fisher (id:1293005)

珍妮·麦卡蒂 Jeanne McCarthy (id:1291450)

肖恩·霍沃斯 Sean Haworth (id:1001117)

克里斯·比奇 Chris Beach (id:1031227)

克雷格·汉弗莱斯 Craig Humphries (id:1195497)

格兰特·范·德·斯莱格特 Grant Van Der Slagt (id:1299834)

洛伊·齐默曼 Loic Zimmermann (id:1404957)

黛布拉·麦奎尔 Debra McGuire (id:1338194)

◎简 介

《刺猬索尼克》改编自世嘉公司出品的风靡全球的电子游戏。索尼克(本·施瓦兹 Ben Schwartz 配音)是一只蓝色的刺猬,原本快乐的生活在自己的星球上。然而,邪恶的势力觊觎索尼克所拥有了超快速度,想要将这一门绝技夺走,为了保护索尼克,善良的猫头鹰养母给了索尼克一包魔力环,它可以帮助索尼克传送到安全的星球上。就这样,索尼克来到了地球,降落在了位于蒙大拿州的青山市。

起初,索尼克在这里生活的非常惬意,并且结交了一批好友。当政府发现了索尼克的存在后,一切都变得复杂起来。政府派出了邪恶的科学家蛋头博士(金·凯瑞 Jim Carrey 饰),命令他捉住索尼克,对他进行可怕的科学研究。为了躲避蛋头博士的追捕,索尼克和警长汤姆(詹姆斯·麦斯登 James Marsden 饰)必须前往旧金山,取得丢在那里的魔力环。

  1. General

  2. Unique ID : 252871020429953748193802767314387605054 (0xBE3D2FE149DE512919852BF65242163E)

  3. Complete name : sonic.the.hedgehog.2020.BluRay.2160p.x265.10bit.HDR.2Audios-MiniHD.mkv

  4. Format : Matroska

  5. Format version : Version 4

  6. File size : 14.2 GiB

  7. Duration : 1 h 38 min

  8. Overall bit rate mode : Variable

  9. Overall bit rate : 20.5 Mb/s

  10. Encoded date : UTC 2020-07-11 16:15:34

  11. Writing application : mkvmerge v44.0.0 ('Domino') 64-bit

  12. Writing library : libebml v1.3.10 + libmatroska v1.5.2


  13. Video

  14. ID : 1

  15. Format : HEVC

  16. Format/Info : High Efficiency Video Coding

  17. Format profile : Main 10@L5.1@High

  18. HDR format : SMPTE ST 2094 App 4, Version 1, HDR10+ Profile B compatible

  19. Codec ID : V_MPEGH/ISO/HEVC

  20. Duration : 1 h 38 min

  21. Bit rate : 15.3 Mb/s

  22. Width : 3 840 pixels

  23. Height : 1 608 pixels

  24. Display aspect ratio : 2.40:1

  25. Frame rate mode : Constant

  26. Frame rate : 23.976 (24000/1001/53354) FPS

  27. Color space : YUV

  28. Chroma subsampling : 4:2:0

  29. Bit depth : 10 bits

  30. Bits/(Pixel*Frame) : 0.103

  31. Stream size : 10.6 GiB (75%)

  32. Writing library : x265 3.3+3-g8f8e332f1+29:[Windows][#Erg`Djh#][@Yuuki] made by @Dongfangbubai

  33. Encoding settings : rc=crf / crf=18.0000 / qcomp=0.70 / qpstep=4 / stats-write=0 / stats-read=0 / vbv-maxrate=160000 / vbv-bufsize=160000 / vbv-init=0.9 / crf-max=0.0 / crf-min=0.0 / no-lossless / no-cu-lossless / aq-mode=3 / aq-strength=0.80 / cbqpoffs=-3 / crqpoffs=-3 / ipratio=1.40 / pbratio=1.30 / psy-rd=2.00 / psy-rdoq=3.00 / deblock=-1:-1 / ref=5 / limit-refs=0 / no-limit-modes / bframes=8 / b-adapt=2 / bframe-bias=0 / b-pyramid / b-intra / weightp / weightb / min-keyint=23 / max-keyint=240 / rc-lookahead=60 / gop-lookahead=0 / NTMzNTQ=uuDQuD2mJt9fsCf / scenecut=40 / hist-scenecut=0 / radl=0 / max-cu-size=32 / min-cu-size=8 / me=3 / subme=4 / merange=25 / rdoq-level=2 / rd=4 / rdpenalty=1 / dynamic-rd=0.00 / no-rd-refine / ----- / no-cutree / no-sao / no-rect / no-amp / no-open-gop / wpp / pmode / pme / no-psnr / no-ssim / nr-intra=0 / nr-inter=0 / no-constrained-intra / no-strong-intra-smoothing / max-tu-size=32 / tu-inter-depth=2 / tu-intra-depth=2 / limit-tu=0 / qg-size=32 / qpmax=69 / qpmin=0 / ----- / cpuid=533541111039 / frame-threads=6 / numa-pools=54,- / log-level=2 / input-csp=1 / input-res=3840x1608 / interlace=0 / level-idc=0 / high-tier=1 / uhd-bd=0 / no-allow-non-conformance / no-repeat-headers / no-aud / hrd / info / hash=0 / no-temporal-layers / lookahead-slices=0 / no-splice / no-intra-refresh / no-ssim-rd / signhide / no-tskip / max-merge=3 / temporal-mvp / no-frame-dup / no-hme / no-analyze-src-pics / no-sao-non-deblock / selective-sao=0 / no-early-skip / no-rskip / no-fast-intra / no-tskip-fast / no-splitrd-skip / zone-count=0 / no-strict-cbr / no-rc-grain / no-const-vbv / sar=0 / overscan=0 / videoformat=5 / range=0 / colorprim=9 / transfer=16 / colormatrix=9 / chromaloc=0 / display-window=0 / master-display=G(13250,34500)B(7500,3000)R(34000,16000)WP(15635,16450)L(40000000,50) / cll=698,204 / min-luma=0 / max-luma=1023 / log2-max-poc-lsb=8 / vui-timing-info / vui-hrd-info / slices=1 / no-opt-qp-pps / no-opt-ref-list-length-pps / no-multi-pass-opt-rps / scenecut-bias=0.05 / hist-threshold=0.01 / no-opt-cu-delta-qp / no-aq-motion / hdr10 / hdr10-opt / no-dhdr10-opt / no-idr-recovery-sei / analysis-reuse-level=0 / analysis-save-reuse-level=0 / analysis-load-reuse-level=0 / scale-factor=0 / refine-intra=0 / refine-inter=0 / refine-mv=1 / refine-ctu-distortion=0 / no-limit-sao / ctu-info=0 / no-lowpass-dct / refine-analysis-type=0 / copy-pic=1 / max-ausize-factor=1.0 / no-dynamic-refine / no-single-sei / no-hevc-aq / no-svt / no-field / qp-adaptation-range=1.00 / no-scenecut-aware-qpconformance-window-offsets / right=0 / bottom=0 / NTMzNTQ=

  34. Default : Yes

  35. Forced : No

  36. Color range : Limited

  37. Color primaries : BT.2020

  38. Transfer characteristics : PQ

  39. Matrix coefficients : BT.2020 non-constant

  40. Mastering display color primaries : Display P3

  41. Mastering display luminance : min: 0.0050 cd/m2, max: 4000 cd/m2

  42. Maximum Content Light Level : 698 cd/m2

  43. Maximum Frame-Average Light Level : 204 cd/m2


  44. Audio #1

  45. ID : 2

  46. Format : MLP FBA 16-ch

  47. Format/Info : Meridian Lossless Packing FBA with 16-channel presentation

  48. Commercial name : Dolby TrueHD with Dolby Atmos

  49. Codec ID : A_TRUEHD

  50. Duration : 1 h 38 min

  51. Bit rate mode : Variable

  52. Bit rate : 4 434 kb/s

  53. Maximum bit rate : 7 872 kb/s

  54. Channel(s) : 8 channels

  55. Channel layout : L R C LFE Ls Rs Lb Rb

  56. Sampling rate : 48.0 kHz

  57. Frame rate : 1 200.000 FPS (40 SPF)

  58. Compression mode : Lossless

  59. Stream size : 3.06 GiB (22%)

  60. Title : 英语Atmos

  61. Language : English

  62. Default : Yes

  63. Forced : No

  64. Number of dynamic objects : 11

  65. Bed channel count : 1 channel

  66. Bed channel configuration : LFE


  67. Audio #2

  68. ID : 3

  69. Format : AC-3

  70. Format/Info : Audio Coding 3

  71. Commercial name : Dolby Digital

  72. Codec ID : A_AC3

  73. Duration : 1 h 38 min

  74. Bit rate mode : Constant

  75. Bit rate : 640 kb/s

  76. Channel(s) : 6 channels

  77. Channel layout : L R C LFE Ls Rs

  78. Sampling rate : 48.0 kHz

  79. Frame rate : 31.250 FPS (1536 SPF)

  80. Compression mode : Lossy

  81. Stream size : 453 MiB (3%)

  82. Title : 英语AC-3

  83. Language : English

  84. Service kind : Complete Main

  85. Default : No

  86. Forced : No


  87. Text #1

  88. ID : 4

  89. Format : PGS

  90. Muxing mode : zlib

  91. Codec ID : S_HDMV/PGS

  92. Codec ID/Info : Picture based subtitle format used on BDs/HD-DVDs

  93. Duration : 1 h 32 min

  94. Bit rate : 51.8 kb/s

  95. Count of elements : 3184

  96. Stream size : 34.3 MiB (0%)

  97. Title : 英文

  98. Language : English

  99. Default : Yes

  100. Forced : No


  101. Text #2

  102. ID : 5

  103. Format : PGS

  104. Muxing mode : zlib

  105. Codec ID : S_HDMV/PGS

  106. Codec ID/Info : Picture based subtitle format used on BDs/HD-DVDs

  107. Duration : 1 h 31 min

  108. Bit rate : 33.0 kb/s

  109. Count of elements : 2545

  110. Stream size : 21.6 MiB (0%)

  111. Title : 简中

  112. Language : Chinese

  113. Default : No

  114. Forced : No


  115. Text #3

  116. ID : 6

  117. Format : PGS

  118. Muxing mode : zlib

  119. Codec ID : S_HDMV/PGS

  120. Codec ID/Info : Picture based subtitle format used on BDs/HD-DVDs

  121. Duration : 1 h 37 min

  122. Bit rate : 30.0 kb/s

  123. Count of elements : 2624

  124. Stream size : 20.9 MiB (0%)

  125. Title : 台繁

  126. Language : Chinese

  127. Default : No

  128. Forced : No


  129. Text #4

  130. ID : 7

  131. Format : PGS

  132. Muxing mode : zlib

  133. Codec ID : S_HDMV/PGS

  134. Codec ID/Info : Picture based subtitle format used on BDs/HD-DVDs

  135. Duration : 1 h 37 min

  136. Bit rate : 32.0 kb/s

  137. Count of elements : 2588

  138. Stream size : 22.3 MiB (0%)

  139. Title : 港繁

  140. Language : Chinese

  141. Default : No

  142. Forced : No


  143. Menu

  144. 00:00:00.000 : en:Chapter 01

  145. 00:03:51.857 : en:Chapter 02

  146. 00:09:32.989 : en:Chapter 03

  147. 00:12:45.974 : en:Chapter 04

  148. 00:18:09.422 : en:Chapter 05

  149. 00:22:20.339 : en:Chapter 06

  150. 00:27:33.694 : en:Chapter 07

  151. 00:35:09.316 : en:Chapter 08

  152. 00:41:37.328 : en:Chapter 09

  153. 00:51:24.623 : en:Chapter 10

  154. 01:01:04.828 : en:Chapter 11

  155. 01:04:38.208 : en:Chapter 12

  156. 01:10:20.341 : en:Chapter 13

  157. 01:18:54.021 : en:Chapter 14

  158. 01:25:38.717 : en:Chapter 15

  159. 01:30:27.297 : en:Chapter 16




复制代码


TAGS 动作 冒险 动画 喜剧 /

磁力链:
  • magnet:?xt=urn:btih:3FE78A72955E5DF141AEB28FE08B92D4C23EB720
上传的附件:
BT9527电影天堂 1、BT9527电影天堂提供的BT文件均来源于互联网抓取,只供网友学习交流、技术提升使用。
2、我们遵守BitTorrent点对点协议原则,任何版权问题请联系原资源发布商,我们不处理任何版权纠纷,谢谢!如有争议请联系邮箱:BT9527#hotmail.com(#换成@)
3、如果您发现某页面或地址有错误,请联系站长邮箱BT9527#hotmail.com(#换成@),我们会尽快处理。您的热心是对BT9527电影天堂最大的支持。
4、本站建议去正规影院观看电影以支持电影行业发展。
最新回复 (1)
  • GFACL 2天前
    2
    没有国语版

你可以在 登录 or 注册 后,对此帖发表评论!

返回
发新帖